v

您的位置:VeryCD音乐古典音乐

音乐资源事务区


阿卡多 S Accardo & 汤马西 Giorgia Tomassi -《贝多芬第九小提琴奏鸣曲“克鲁采”和第五小提琴奏鸣曲“春天”》(Beethoven: SONATA No.9 OP. 47 & No.5 OP. 24 )Fone[FLAC]

  • 状态: 精华资源
  • 摘要:
    古典类型奏鸣曲
    发行时间2009年
  • 时间: 2012/08/11 09:06:19 发布 | 2012/08/11 20:52:30 更新
  • 分类: 音乐  古典音乐 

kalasnikf

精华资源: 359

全部资源: 362

相关: 分享到新浪微博   转播到腾讯微博   分享到开心网   分享到人人   分享到QQ空间   订阅本资源RSS更新   美味书签  subtitle
该内容尚未提供权利证明,无法提供下载。
专辑英文名Beethoven: SONATA No.9 OP. 47 & No.5 OP. 24
专辑中文名贝多芬第九小提琴奏鸣曲“克鲁采”和第五小提琴奏鸣曲“春天”
古典类型奏鸣曲
资源格式FLAC
版本Fone
发行时间2009年
地区意大利
简介

IPB Image

专辑介绍

古典乐派三大作曲家之一贝多芬,被誉为德国最具影响力的音乐家,多首由他所谱写的乐章至今广受欢迎。义大利小提琴家阿卡多配合国际知名的钢琴演奏家乔治亚.托玛西,重新詮释贝多芬两首小提琴奏鸣曲:A大调第9号小提琴奏鸣曲,作品47《克罗釆》和F大调第5号小提琴奏鸣曲,作品24《春天》。阿卡多以精湛的琴艺、细腻传神的乐音与托玛西清亮的琴音互相辉映,完美的交织与融合,呈现出贝多芬小提琴奏鸣曲的特色。

钢琴伴奏:乔治亚·汤马西(Giorgia Tomassi)

IPB Image

意大利钢琴家Giorgia Tomassi 或许很多人不了解。值得一提的是1992年汤马西获得过Artur Rubinstein钢琴比赛的第一名(注:同一届里, 华裔钢琴家陈瑞斌获得第4)。汤马西的技术无可厚非,比较擅长对名作的速度和节奏进行高度精确的把握,张弛有度,还会适当加上自己的特色的演绎,这使得那些音乐更加鲜活起来。汤马西1997年由EMI唱片发行过一张Debut系列专辑,获得很多业内人士的好评。

代码
REM GENRE Classical
REM DATE 2009
REM DISCID 650F0F07
REM COMMENT "ExactAudioCopy v1.0b3"
PERFORMER "S. Accardo / G. Tomassi"
TITLE "Sonata op. 47 'A Kreutzer', op. 24 'La Primavera' - Accardo"
FILE "S.Accardo.G.Tomassi.-.[Sonata.op.47'A.Kreutzer'.op.24'La.Primavera'].专辑.(FLAC).flac" WAVE
  TRACK 01 AUDIO
    TITLE "Sonata op. 47 - 1. Adagio sostenuto - Presto"
    PERFORMER "S. Accardo / G. Tomassi"
    INDEX 01 00:00:00
  TRACK 02 AUDIO
    TITLE "Sonata op. 47 - 2. Andante con variazioni"
    PERFORMER "S. Accardo / G. Tomassi"
    INDEX 01 14:45:63
  TRACK 03 AUDIO
    TITLE "Sonata op. 47 - 3. Finale: Presto"
    PERFORMER "S. Accardo / G. Tomassi"
    INDEX 01 30:58:65
  TRACK 04 AUDIO
    TITLE "Sonata op. 24 - 1. Allegro"
    PERFORMER "S. Accardo / G. Tomassi"
    INDEX 01 39:45:59
  TRACK 05 AUDIO
    TITLE "Sonata op. 24 - 2. Adagio molto espressivo"
    PERFORMER "S. Accardo / G. Tomassi"
    INDEX 01 50:05:70
  TRACK 06 AUDIO
    TITLE "Sonata op. 24 - 3. Scherzo: Allegro molto"
    PERFORMER "S. Accardo / G. Tomassi"
    INDEX 01 56:20:70
  TRACK 07 AUDIO
    TITLE "Sonata op. 24 - 4. Allegro ma non troppo"
    PERFORMER "S. Accardo / G. Tomassi"
    INDEX 01 57:40:62


代码
Exact Audio Copy V1.0 beta 3 from 29. August 2011

EAC 抓取日志文件从11. 八月 2012, 8:23

S. Accardo / G. Tomassi / Sonata op. 47 "A Kreutzer", op. 24 "La Primavera" - Accardo

使用驱动器  :SlimtypeDVD A  DS8A5SH   Adapter: 1  ID: 0

读取模式 : 暴发

读取偏移校正:               : 6
读取 Lead-In 和 Lead-Out : 否
用静音填充抓取中丢失偏移的采样       : 是
去除首尾静音块               : 否
在CRC 计算中使用了空样本       : 是
已用接口                  : Win NT 及 2000 本地 Win32 接口

所用输出模式: : 内部 WAV 函数
样本格式    : 44.100 Hz; 16 Bit; 立体声


已抓取 CD 的 TOC

     音轨 |    起始    |    长度    |  起始扇区  |  结束扇区  
    --------------------------------------------
      1 |  0:00.00 | 14:45.63 |      0 |  66437
      2 | 14:45.63 | 16:13.02 |  66438 | 139414
      3 | 30:58.65 |  8:46.69 | 139415 | 178933
      4 | 39:45.59 | 10:20.11 | 178934 | 225444
      5 | 50:05.70 |  6:15.00 | 225445 | 253569
      6 | 56:20.70 |  1:19.67 | 253570 | 259561
      7 | 57:40.62 |  6:34.60 | 259562 | 289171


范围状态及错误

已选择范围   (扇区 0-289171)

     文件名 E:\音频处理\accado.wav

     峰值电平 96.2 %
     抓取速度 12.4 X
     复制 CRC B54564BC
     复制成功

没有错误发生


AccurateRip 摘要

音轨  1  不能准确地校验 (确认 3)  [AF22A04B], 返回 AccurateRip [81ED5C3C]  (AR v2)
音轨  2  不能准确地校验 (确认 3)  [269FED50], 返回 AccurateRip [1D63ACFB]  (AR v2)
音轨  3  不能准确地校验 (确认 3)  [A4CB6446], 返回 AccurateRip [2E53B2E6]  (AR v2)
音轨  4  不能准确地校验 (确认 3)  [95B6103F], 返回 AccurateRip [19996DEE]  (AR v2)
音轨  5  不能准确地校验 (确认 3)  [EA5FEA20], 返回 AccurateRip [9565ED03]  (AR v2)
音轨  6  不能准确地校验 (确认 3)  [057914F9], 返回 AccurateRip [B1067162]  (AR v2)
音轨  7  不能准确地校验 (确认 3)  [F6E88BC4], 返回 AccurateRip [2F60A1F8]  (AR v2)

没有音轨被准确核实
你的版本可能与数据库的版本不同

状态报告结尾



专辑曲目

.Ludwig van Beethoven: SONATA IN LA MAGGIORE OP. 47 "A KREUTZER"
01. Adagio sostenuto - Presto
02. Andante con variazioni
03. Finale: Presto

.Ludwig van Beethoven: SONATA IN FA MAGGIORE OP. 24 "LA PRIMAVERA"
04. Allegro
05. Adagio molto espressivo
06. Scherzo: Allegro molto
07. Rondò: Allegro ma non troppo

正在读取……

这里是其它用户补充的资源(我也要补充):

暂无补充资源
正在加载,请稍等...

点击查看所有67网友评论

 

(?) [公告]留口水、评论相关规则 | [活动]每日签到 轻松领取电驴经验

    小贴士:
  1. 类似“顶”、“沙发”之类没有营养的文字,对勤劳贡献的楼主来说是令人沮丧的反馈信息。
  2. 提问之前请再仔细看一遍楼主的说明,或许是您遗漏了。
  3. 勿催片。请相信驴友们对分享是富有激情的,如果确有更新版本,您一定能搜索到。
  4. 请勿到处挖坑绊人、招贴广告。既占空间让人厌烦,又没人会搭理,于人于己都无利。
  5. 如果您发现自己的评论不见了,请参考以上4条。