v

您的位置:VeryCD音乐古典音乐

音乐资源事务区


克伦佩勒 Otto Klemperer & 爱乐乐团 Philharmonia Orchestra -《德沃夏克第九交响曲/舒伯特第五交响曲》(Dvorak: Symphonie No.9; Schubert: Symphonie No.5)EMI[FLAC]

  • 状态: 精华资源
  • 摘要:
    古典类型交响曲
    发行时间1991年
  • 时间: 2012/08/11 00:31:34 发布 | 2012/08/11 20:52:25 更新
  • 分类: 音乐  古典音乐 

kalasnikf

精华资源: 359

全部资源: 362

相关: 分享到新浪微博   转播到腾讯微博   分享到开心网   分享到人人   分享到QQ空间   订阅本资源RSS更新   美味书签  subtitle
该内容尚未提供权利证明,无法提供下载。
专辑英文名Dvorak: Symphonie No.9; Schubert: Symphonie No.5
专辑中文名德沃夏克第九交响曲/舒伯特第五交响曲
古典类型交响曲
资源格式FLAC
版本EMI
发行时间1991年
地区英国
语言英语
简介

IPB Image

专辑介绍

关于克伦佩勒和德沃夏克第九交响曲,其实也不需要太多的介绍。克伦佩勒在EMI的时代就是他以厚重和慢而著称的时代(当然他的慢和切利比达克又不一样)。在这种背景下演绎出来的德九估计是不会讨人喜欢的,特别是血气方刚的年轻人。这张碟比较让我耳目一新的是舒伯特第五交响曲。奥托大帝在舒伯特这首清新的小曲面前也不得不收起他满心的沧桑,以一种闲适、优雅的姿态来演绎这首曲子。这在一贯厚重的奥托大帝的录音中比较难得。

舒伯特《第五交响曲》是一首室内乐队演奏的小型交响曲,人们称此曲为不用鼓和小号的交响曲。而舒伯特却当它为一首庄严弥撒曲,这虽与贝多芬同期创作的庄严弥撒曲不可同日而语,但仍表现出舒伯特的愤世嫉俗的性情,全曲洋溢着如同莫扎特作品般神奇诱人的魅力。初听之下,开始的风格似乎还弥漫着莫扎特式的感染力,但到了第三乐章,一首G大调小步舞曲就以舒伯特那特有的朴实音色与之区分开来,轻盈流畅的旋律和煦自然,曲式典雅,悦耳的动听,体现出舒伯特作曲技巧的娴熟。交响曲充满了一派青春气息,洋溢着儒雅风范,舒伯特音乐雅致的风格展露无疑。这首《第五交响曲》同他的歌曲一样,让人深受感动,仿佛在向人们倾诉着衷肠。

代码
REM GENRE Classical
REM DATE 1963
REM DISCID 6C10EC08
REM COMMENT "ExactAudioCopy v1.0b3"
PERFORMER "Otto Klemperer/Philharmonia Orchestra "
TITLE "Dvorak: Symphonie No. 9; Schubert: Symphonie No. 5"
FILE "Otto.Klemperer.Philharmonia.Orchestra.-.[Dvorak.Symphonie.No.9.Schubert.Symphonie.No.5].专辑.(FLAC).flac" WAVE
  TRACK 01 AUDIO
    TITLE "I: Adagio - Allegro molto"
    PERFORMER "Otto Klemperer/Philharmonia Orchestra "
    INDEX 00 00:00:00
    INDEX 01 00:00:33
  TRACK 02 AUDIO
    TITLE "II: Largo"
    PERFORMER "Otto Klemperer/Philharmonia Orchestra "
    INDEX 01 12:39:53
  TRACK 03 AUDIO
    TITLE "III: Scherzo (Molto vivace)"
    PERFORMER "Otto Klemperer/Philharmonia Orchestra "
    INDEX 01 24:43:30
  TRACK 04 AUDIO
    TITLE "IV: Allegro con fuoco"
    PERFORMER "Otto Klemperer/Philharmonia Orchestra "
    INDEX 01 33:18:53
  TRACK 05 AUDIO
    TITLE "I: Allegro"
    PERFORMER "Otto Klemperer/Philharmonia Orchestra "
    INDEX 01 45:47:13
  TRACK 06 AUDIO
    TITLE "II: Andante con moto"
    PERFORMER "Otto Klemperer/Philharmonia Orchestra "
    INDEX 01 51:20:58
  TRACK 07 AUDIO
    TITLE "III: Menuetto (Allegro molto) & Trio"
    PERFORMER "Otto Klemperer/Philharmonia Orchestra "
    INDEX 01 61:09:30
  TRACK 08 AUDIO
    TITLE "IV: Allegro vivace"
    PERFORMER "Otto Klemperer/Philharmonia Orchestra "
    INDEX 01 66:09:54


代码
Exact Audio Copy V1.0 beta 3 from 29. August 2011

EAC 抓取日志文件从11. 八月 2012, 0:08

Otto Klemperer/Philharmonia Orchestra  / Dvorak: Symphonie No. 9; Schubert: Symphonie No. 5

使用驱动器  :SlimtypeDVD A  DS8A5SH   Adapter: 1  ID: 0

读取模式 : 暴发

读取偏移校正:               : 6
读取 Lead-In 和 Lead-Out : 否
用静音填充抓取中丢失偏移的采样       : 是
去除首尾静音块               : 否
在CRC 计算中使用了空样本       : 是
已用接口                  : Win NT 及 2000 本地 Win32 接口

所用输出模式: : 内部 WAV 函数
样本格式    : 44.100 Hz; 16 Bit; 立体声


已抓取 CD 的 TOC

     音轨 |    起始    |    长度    |  起始扇区  |  结束扇区  
    --------------------------------------------
      1 |  0:00.33 | 12:39.20 |     33 |  56977
      2 | 12:39.53 | 12:03.52 |  56978 | 111254
      3 | 24:43.30 |  8:35.23 | 111255 | 149902
      4 | 33:18.53 | 12:28.35 | 149903 | 206037
      5 | 45:47.13 |  5:33.45 | 206038 | 231057
      6 | 51:20.58 |  9:48.47 | 231058 | 275204
      7 | 61:09.30 |  5:00.25 | 275205 | 297729
      8 | 66:09.55 |  6:03.05 | 297730 | 324959


范围状态及错误

已选择范围   (扇区 33-324959)

     文件名 E:\音频处理\klem.wav

     峰值电平 93.9 %
     抓取速度 6.8 X
     复制 CRC FCD7E8FC
     复制成功

没有错误发生


AccurateRip 摘要

音轨  1  不能准确地校验 (确认 4)  [148803C1], 返回 AccurateRip [DE7C755F]  (AR v2)
音轨  2  不能准确地校验 (确认 4)  [72C66335], 返回 AccurateRip [CF4697D6]  (AR v2)
音轨  3  不能准确地校验 (确认 4)  [6396CAAC], 返回 AccurateRip [F04CD9F0]  (AR v2)
音轨  4  不能准确地校验 (确认 4)  [A833E2C9], 返回 AccurateRip [22CD7D37]  (AR v2)
音轨  5  不能准确地校验 (确认 4)  [98B6F189], 返回 AccurateRip [54787A92]  (AR v2)
音轨  6  不能准确地校验 (确认 3)  [0E41A533], 返回 AccurateRip [39492779]  (AR v2)
音轨  7  不能准确地校验 (确认 4)  [17BCA34F], 返回 AccurateRip [F61FCC18]  (AR v2)
音轨  8  不能准确地校验 (确认 4)  [AD47BEAC], 返回 AccurateRip [8D415754]  (AR v2)

没有音轨被准确核实
你的版本可能与数据库的版本不同

状态报告结尾



专辑曲目

Dvorak: Symphonie No.9
1 I: Adagio - Allegro molto
2 II: Largo
3 III: Scherzo (Molto vivace)
4 IV: Allegro con fuoco

Schubert: Symphonie No.5
5 I: Allegro
6 II: Andante con moto
7 III: Menuetto (Allegro molto) & Trio
8 IV: Allegro vivace

正在读取……

这里是其它用户补充的资源(我也要补充):

暂无补充资源
正在加载,请稍等...

点击查看所有63网友评论

 

(?) [公告]留口水、评论相关规则 | [活动]每日签到 轻松领取电驴经验

    小贴士:
  1. 类似“顶”、“沙发”之类没有营养的文字,对勤劳贡献的楼主来说是令人沮丧的反馈信息。
  2. 提问之前请再仔细看一遍楼主的说明,或许是您遗漏了。
  3. 勿催片。请相信驴友们对分享是富有激情的,如果确有更新版本,您一定能搜索到。
  4. 请勿到处挖坑绊人、招贴广告。既占空间让人厌烦,又没人会搭理,于人于己都无利。
  5. 如果您发现自己的评论不见了,请参考以上4条。