v

您的位置:VeryCD音乐古典音乐

音乐资源事务区


斋藤秀雄 Hideo Saito & 桐朋学园管弦乐团 Toho Gakuen Orchestra -《勃拉姆斯c小调第一交响曲》(Brahms Symphony No.1)普罗艺术PoloArts[FLAC]

  • 状态: 精华资源
  • 摘要:
    古典类型交响曲
    发行时间2009年
  • 时间: 2012/08/10 22:29:51 发布 | 2012/08/11 20:46:16 更新
  • 分类: 音乐  古典音乐 

kalasnikf

精华资源: 359

全部资源: 362

相关: 分享到新浪微博   转播到腾讯微博   分享到开心网   分享到人人   分享到QQ空间   订阅本资源RSS更新   美味书签  subtitle
该内容尚未提供权利证明,无法提供下载。
专辑英文名Brahms Symphony No.1
专辑中文名勃拉姆斯c小调第一交响曲
古典类型交响曲
资源格式FLAC
版本普罗艺术PoloArts
发行时间2009年
地区大陆,日本
语言普通话,英语
简介

IPB Image

专辑介绍

IPB Image
斋藤秀雄(1902-1974),日本的西洋音乐教学之父,同时也是日本的指挥教父。斋藤秀雄是日本有名英语学者斋藤秀三郎的次子,12岁时就显现了对音乐的兴趣,开始演奏洋琵琶;16岁时开始学习大提琴,之后进入上智大学,但由于想专心于音乐而中途退学。斋藤秀雄22岁时随日本当时有名的作曲家、指挥家近卫秀麿留学德国。归国后,斋藤秀雄在日本新交响乐团(NHK交响乐团的前身)担任大提琴演奏和乐团指挥。1930年,斋藤秀雄留学柏林,成为大提琴家费尔曼(E.Feuermann) 的得意弟子;这对斋藤秀雄的演奏生涯产生了极大影响,对演奏或指挥德国作曲家的作品有相当大的偏好。
1936年,与约瑟夫·罗贞修德克(Joseph Rosenstock)的相识极大的改变了斋藤秀雄的未来,罗贞修德克对音乐的热情和指导方法成为了斋藤战后“斋藤式教学方法”的参考。1941年秋,斋藤退出新交响乐团,开始成为一个独立的指挥家。1943年,斋藤单人松竹交响乐团和东京交响乐团的首席指挥。
IPB Image
他不但是大提琴家、指挥家,也是日本杰出的音乐教育家,创办桐城学园音乐系,着眼于音乐训练是须从幼年即开始的音乐扎根教育;他有着很多训练学生的独特方法,其中包括巴黎音乐学院所实行的“视唱”(Solfege) 训练方式。战后,斋藤秀雄与井口基成、伊藤武雄、吉田秀和等人成立“为孩子开设的音乐教室”,与以后桐朋学园一系列音乐学科的开设有很大关系。此后,斋藤任教桐朋女子高校、桐朋学园大学、桐朋学园短期大学等,将毕生精力献给了音乐教育事业。1964年,斋藤成立桐朋学园弦乐合奏团,并成功进行美国公演;并于1967年出任日本指挥者协会会长。1974年9月18日,斋藤秀雄因癌症去世。
斋藤秀雄还著有世界著名的指挥法教材《指挥法教程》,他最著名的弟子小泽征尔为之做序。


桐朋学园大学,英文名称:Toho Gakuen School of Music。是于1955年建立,1961年开设大学教育的日本私立大学。大学的简称为“桐朋”。 桐朋学园大学以传统的钢琴专攻、弦乐器专攻、指挥专攻、作曲专攻闻名,培养了以小泽征尔为首的众多优秀演奏家。学校拥有从专为儿童开设的音乐教室直到大学、大学院的一贯体系。 桐朋学园大学设有音乐学部(音乐学科:钢琴专攻、弦乐器专攻、管乐器专攻、打击乐器专攻、竖琴专攻、古乐器专攻、声乐专攻、作曲专攻、指挥专攻、音乐学专攻),大学院设有音乐研究科(演奏研究专攻)。

代码
REM GENRE Classical
REM DISCID 2D0A6304
REM COMMENT "ExactAudioCopy v1.0b3"
PERFORMER "Hideo Saito - Toho Gakuen Orchestra"
TITLE "Brahms Symphony No.1"
FILE "Hideo.Saito.-.[Brahms.Symphony.No.1].专辑.(FLAC).flac" WAVE
  TRACK 01 AUDIO
    TITLE "1st movement: Un poco sost. - Allegro"
    PERFORMER "Hideo Saito - Toho Gakuen Orchestra"
    INDEX 01 00:00:00
  TRACK 02 AUDIO
    TITLE "2nd movement: Andante sostenuto "
    PERFORMER "Hideo Saito - Toho Gakuen Orchestra"
    INDEX 00 14:05:47
    INDEX 01 14:07:46
  TRACK 03 AUDIO
    TITLE "3rd movement: Un poco Allegretto e Grazioso"
    PERFORMER "Hideo Saito - Toho Gakuen Orchestra"
    INDEX 00 23:33:27
    INDEX 01 23:35:26
  TRACK 04 AUDIO
    TITLE "4th movement: Adagio, Allegro non troppo ma con brio"
    PERFORMER "Hideo Saito - Toho Gakuen Orchestra"
    INDEX 00 28:17:21
    INDEX 01 28:19:20


代码
Exact Audio Copy V1.0 beta 3 from 29. August 2011

EAC 抓取日志文件从10. 八月 2012, 21:56

未知艺术家 / 未知标题

使用驱动器  :SlimtypeDVD A  DS8A5SH   Adapter: 1  ID: 0

读取模式 : 暴发

读取偏移校正:               : 0
读取 Lead-In 和 Lead-Out : 否
用静音填充抓取中丢失偏移的采样       : 是
去除首尾静音块               : 否
在CRC 计算中使用了空样本       : 是
已用接口                  : Win NT 及 2000 本地 Win32 接口

所用输出模式: : 内部 WAV 函数
样本格式    : 44.100 Hz; 16 Bit; 立体声


已抓取 CD 的 TOC

     音轨 |    起始    |    长度    |  起始扇区  |  结束扇区  
    --------------------------------------------
      1 |  0:00.00 | 14:07.46 |      0 |  63570
      2 | 14:07.46 |  9:27.55 |  63571 | 106150
      3 | 23:35.26 |  4:43.69 | 106151 | 127444
      4 | 28:19.20 | 16:00.07 | 127445 | 199451


范围状态及错误

已选择范围   (扇区 0-199451)

     文件名 E:\音频处理\斋藤勃一.wav

     计时问题 0:00:29
     计时问题 0:00:31 - 0:00:33

     峰值电平 87.7 %
     抓取速度 11.1 X
     复制 CRC B04050DF
     复制结束

没有错误发生

状态报告结尾



专辑曲目

1. 1st movement: Un poco sost. - Allegro 14:28
2. 2nd movement: Andante sostenuto 9:09
3. 3rd movement: Un poco Allegretto e Grazioso 4:50
4. 4th movement: Adagio, Allegro non troppo ma con brio 15:59

正在读取……

这里是其它用户补充的资源(我也要补充):

暂无补充资源
正在加载,请稍等...

点击查看所有34网友评论

 

(?) [公告]留口水、评论相关规则 | [活动]每日签到 轻松领取电驴经验

    小贴士:
  1. 类似“顶”、“沙发”之类没有营养的文字,对勤劳贡献的楼主来说是令人沮丧的反馈信息。
  2. 提问之前请再仔细看一遍楼主的说明,或许是您遗漏了。
  3. 勿催片。请相信驴友们对分享是富有激情的,如果确有更新版本,您一定能搜索到。
  4. 请勿到处挖坑绊人、招贴广告。既占空间让人厌烦,又没人会搭理,于人于己都无利。
  5. 如果您发现自己的评论不见了,请参考以上4条。