v

您的位置:VeryCD动漫动漫周边

动漫资源事务区


《谜之彼女X广播剧》(Nazo no Kanojo X)[Original Drama CD][含BK][TAK]

  • 状态: 精华资源
  • 摘要:
    发行时间2012年2月23日
    对白语言日语
    文字语言日文
  • 时间: 2012/07/09 17:40:03 发布 | 2012/07/09 20:06:52 更新
  • 分类: 动漫  动漫周边 

cecuby

精华资源: 13

全部资源: 13

相关: 分享到新浪微博   转播到腾讯微博   分享到开心网   分享到人人   分享到QQ空间   订阅本资源RSS更新   美味书签  subtitle
该内容尚未提供权利证明,无法提供下载。
中文名谜之彼女X广播剧
英文名Nazo no Kanojo X
别名谜の彼女X
资源格式TAK
版本[Original Drama CD][含BK]
发行时间2012年2月23日
地区日本
对白语言日语
文字语言日文
简介

IPB Image

【动画故事简介】

这是一部讲述普通的高中生椿明与转校生卜部美琴之间恋爱故事的漫画。明在舔了美琴午睡时留在桌子上的唾液后,开始了原因不明的高烧,一连五天都没有去上学。美琴察觉明是因为自己的唾液而病倒了之后,来到了明家探病,之后美琴让明再舔了一次自己的口水后,高烧终于退了。明担心是 不是由于未知病菌引起的而追问发高烧的原因,美琴回答说这是“相思病”,然后把藏着黑发之后的素颜展现在了明面前问道:“你是不是喜欢上我了?”以此为契机,明开始追求美琴,并且最终交往了。虽然美琴答应了要把初夜给明,但是行为上却异常的保守,连手都不让明牵......

【介绍】

谜の彼女X ドラマCD(一般コミック『谜の彼女X』第8巻 限定版特典

出版社: 讲谈社
ISBN-10: 4063583856
ISBN-13: 978-4063583854
発売日: 2012/2/23

【CAST】

卜部美琴(CV.谷彩子 )
椿 明 (CV.入野自由)
上野公平(CV.梶 裕贵)
丘 歩子(CV.広桥 凉)
椿 阳子(CV.福园美里)

【STAFF】

脚本 赤尾でこ
演出 中岛聡彦
録音 田上祐二
効果 三井友和

録音スタジオ アオイスタジオ
音响制作 テクノサウンド

【收录内容】

・CDドラマ「谜の风邪」
・CDドラマ「谜の『男のロマン』」
・昼休み中庭寸剧「丘歩子の卜部美琴コレクション」
・アフタートーク:声优阵&渡辺歩(TVアニメ监督)

【官方网站】

http://www.starchild.co.jp/special/nazokano_x/


代码
Exact Audio Copy V0.99 prebeta 5 from 4. May 2009

EAC 取り込みログファイル 日付 : 25. 2月 2012, 11:47

- / 谜の彼女X ドラマCD

使用ドライブ   : PIONEER BD-RW   BDR-205   Adapter: 0  ID: 1

読み込みモード                       : セキュアモード
ドライブが正确なデータ転送能力を持つ : はい
オーディオキャッシュを使用できる     : はい
C2エラー情报を検出する               : いいえ

読み込みサンプルオフセット订正値             : 637
リードイン・リードアウトをオーバーリードする : いいえ
欠落したオフセットサンプルを无音で补完する   : はい
曲の先头と末端の无音领域を削除する           : いいえ
CRC计算で无音のサンプルを使用するか          : はい
使用インターフェース                         : Win NT & 2000用のクラスドライバ

使用出力モード       : 内蔵WAV出力ルーチン
サンプルフォーマット : 44.100 Hz; 16 Bit; ステレオ


TOC情报を抜き出します

     トラック | スタート |   长さ   | 始めのセクター | 最终セクター
    ----------------------------------------------------------------
         1    |  0:00.00 |  1:19.06 |          0     |      5930    
         2    |  1:19.06 |  6:48.62 |       5931     |     36592    
         3    |  8:07.68 |  1:15.50 |      36593     |     42267    
         4    |  9:23.43 | 13:08.09 |      42268     |    101376    
         5    | 22:31.52 |  0:50.28 |     101377     |    105154    
         6    | 23:22.05 | 22:22.61 |     105155     |    205865    


范囲取り込みステータス & エラー

选択された范囲

     ファイル名 F:\EAC\谜の彼女X_ドラマCD (コミックス8巻 初回限定版) (tak)\谜の彼女X ドラマCD.wav

     ピークレベル 79.5 %
     范囲取り込み品质 99.9 %
     コピーCRC 032227E7
     コピー OK

エラーは発生しませんでした

ステータス报告完了

正在读取……

这里是其它用户补充的资源(我也要补充):

暂无补充资源
正在加载,请稍等...

点击查看所有13网友评论

 

(?) [公告]留口水、评论相关规则 | [活动]每日签到 轻松领取电驴经验

    小贴士:
  1. 类似“顶”、“沙发”之类没有营养的文字,对勤劳贡献的楼主来说是令人沮丧的反馈信息。
  2. 提问之前请再仔细看一遍楼主的说明,或许是您遗漏了。
  3. 勿催片。请相信驴友们对分享是富有激情的,如果确有更新版本,您一定能搜索到。
  4. 请勿到处挖坑绊人、招贴广告。既占空间让人厌烦,又没人会搭理,于人于己都无利。
  5. 如果您发现自己的评论不见了,请参考以上4条。