v

您的位置:VeryCD动漫电视动画

动漫资源事务区


《小羊肖恩:羊羊锦标赛》(Shaun the Sheep Championsheeps)[2012年7月新番][21集全][奥运献礼][MP4]

  • 状态: 精华资源
  • 摘要:
    发行时间2012年07月02日
    语言英语
  • 时间: 2012/07/09 15:42:34 发布 | 2012/07/14 16:21:05 更新
  • 分类: 动漫  电视动画 

xslidian

精华资源: 21

全部资源: 23

相关: 分享到新浪微博   转播到腾讯微博   分享到开心网   分享到人人   分享到QQ空间   订阅本资源RSS更新   美味书签  subtitle
该内容尚未提供权利证明,无法提供下载。
中文名小羊肖恩:羊羊锦标赛
英文名Shaun the Sheep Championsheeps
资源格式MP4
版本[2012年7月新番][21集全][奥运献礼]
发行时间2012年07月02日
导演Lee Wilton
地区英国
语言英语
简介

IPB Image

【首播时间】2012年7月2日~7月13日 @ CBBC
【字幕制作】Red Bee Media——官方英文字幕

【内容介绍】
Life on the farm becomes a hive of athletic activity as Shaun and friends stage their very own sporting extravaganza.
肖恩和他的朋友们举办属于自己的体育盛会,令农场的生活变成了竞技天堂。

优酷在线观看:小羊肖恩之羊羊锦标赛

分集目录
S01E01 Relay 接力赛
S01E02 Shot Put 铅球
S01E03 Synchronised Swimming 花样游泳
S01E04 Ping Pong 乒乓球
S01E05 Diving 跳水
S01E06 Fencing 击剑
S01E07 Gymnastics 体操
S01E08 Archery 射击
S01E09 Weightlifting 举重
S01E10 Steeplechase 障碍赛
S01E11 Beach Volleyball 沙滩排球
S01E12 Hockey 曲棍球
S01E13 Swimming 游泳
S01E14 100 Metre Dash 短跑
S01E15 BMX 小轮车
S01E16 Rings 吊环
S01E17 Hammer 链球
S01E18 Trampoline 蹦床
S01E19 Judo 柔道
S01E20 Ribbon 彩带体操
S01E21 Pole Vault 撑竿跳

IPB Image

代码
General
Complete name                            : D:\burn\stsc\Shaun the Sheep Championsheeps S01E01 Relay WebRip AVC AAC-xslidian.mp4
Format                                   : MPEG-4
Format profile                           : Base Media
Codec ID                                 : isom
File size                                : 6.83 MiB
Duration                                 : 1mn 13s
Overall bit rate mode                    : Constant
Overall bit rate                         : 784 Kbps
Movie name                               : 1. Relay
Album                                    : Shaun the Sheep Championsheeps
Album/Performer                          : BBC TV
Track name/Position                      : 1
Track name/Total                         : 0
Grouping                                 : Children's,Entertainment & Comedy,Animation
Performer                                : CBBC
Composer                                 : BBC iPlayer
Genre                                    : Children's
Recorded date                            : 2012-07-02T15:20:00+01:00
Tagged date                              : UTC 2012-07-08 12:35:47
Writing application                      : xslidian
Copyright                                : © 2012 British Broadcasting Corporation, all rights reserved
Cover                                    : Yes
Comment                                  : Bitzer is surprised to find himself the winner of the relay race.
stik                                     : 10
©lyr                                     : Children's animation. Life on the farm becomes a hive of athletic activity as Shaun and friends stage their very own sporting extravaganza. Bitzer is surprised to find himself the winner of the relay race when his bone is used as a baton. /  / EPISODE / http://www.bbc.co.uk/iplayer/episode/b01knbbl/Shaun_the_Sheep_Championsheeps_Relay/ /  / SERIES / http://www.bbc.co.uk/programmes/b01knbbl.html
desc                                     : Bitzer is surprised to find himself the winner of the relay race.
tvsh                                     : Shaun the Sheep Championsheeps
tven                                     : s00e01
tves                                     : 1
tvnn                                     : CBBC

Video
ID                                       : 1
Format                                   : AVC
Format/Info                              : Advanced Video Codec
Format profile                           : Main@L3.0
Format settings, CABAC                   : Yes
Format settings, ReFrames                : 4 frames
Codec ID                                 : avc1
Codec ID/Info                            : Advanced Video Coding
Duration                                 : 1mn 13s
Bit rate mode                            : Constant
Bit rate                                 : 700 Kbps
Width                                    : 640 pixels
Height                                   : 360 pixels
Display aspect ratio                     : 16:9
Frame rate mode                          : Constant
Frame rate                               : 25.000 fps
Standard                                 : PAL
Color space                              : YUV
Chroma subsampling                       : 4:2:0
Bit depth                                : 8 bits
Scan type                                : Progressive
Bits/(Pixel*Frame)                       : 0.122
Stream size                              : 5.94 MiB (87%)

Audio
ID                                       : 2
Format                                   : AAC
Format/Info                              : Advanced Audio Codec
Format profile                           : HE-AAC / LC
Codec ID                                 : 40
Duration                                 : 1mn 13s
Bit rate mode                            : Constant
Bit rate                                 : 96.0 Kbps
Channel(s)                               : 2 channels
Channel positions                        : Front: L R
Sampling rate                            : 48.0 KHz / 24.0 KHz
Compression mode                         : Lossy
Stream size                              : 845 KiB (12%)

正在读取……

这里是其它用户补充的资源(我也要补充):

暂无补充资源
正在加载,请稍等...

点击查看所有12网友评论

 

(?) [公告]留口水、评论相关规则 | [活动]每日签到 轻松领取电驴经验

    小贴士:
  1. 类似“顶”、“沙发”之类没有营养的文字,对勤劳贡献的楼主来说是令人沮丧的反馈信息。
  2. 提问之前请再仔细看一遍楼主的说明,或许是您遗漏了。
  3. 勿催片。请相信驴友们对分享是富有激情的,如果确有更新版本,您一定能搜索到。
  4. 请勿到处挖坑绊人、招贴广告。既占空间让人厌烦,又没人会搭理,于人于己都无利。
  5. 如果您发现自己的评论不见了,请参考以上4条。