v

您的位置:VeryCD动漫电视动画

动漫资源事务区


《魔神英雄传2》(Mashin Eiyuuden Wataru2)日语外挂中文字幕[DVDRip]

  • 状态: 精华资源
  • 摘要:
    发行时间1990年
    语言日语
  • 时间: 2012/04/03 09:46:26 发布 | 2012/07/10 14:05:28 更新
  • 分类: 动漫  电视动画 

999jjj

精华资源: 3

全部资源: 14

相关: 分享到新浪微博   转播到腾讯微博   分享到开心网   分享到人人   分享到QQ空间   订阅本资源RSS更新   美味书签  subtitle
该内容尚未提供权利证明,无法提供下载。
中文名魔神英雄传2
英文名Mashin Eiyuuden Wataru2
别名魔神英雄伝ワタル2,神龙斗士2,魔神英雄传2
资源格式DVDRip
版本日语外挂中文字幕
发行时间1990年
导演井内秀治
地区日本
语言日语
简介

IPB Image
【简介】

瓦塔诺,西米格,施巴拉古大师等人在成功恢复了所开山(创界山)的和平与安宁之后,由魔王多路达统治的星界山又发生了危机,瓦塔诺一行人再次踏上救世主的征程,在新的篇章中,人气角色开米西(海火子)隆重登场,同时,以全新姿态出场的虎王也是十分值得期待,星界山的旅程同样精彩哦~

魔神英雄伝ワタル2
第一话「救世主归来」帰ってきた救世主!
第二话「在比萨之城里」ピザの町でハイチーズ
第三话「半壁城的半半兄弟」壁の町のハンブン兄弟
第四话「跳起来吧 牛的吉卜赛舞蹈」踊れウシのフラメンコ
第五话「拉车大赛」トントン戦车の大レース
第六话「吹吧 星之风」はやく吹け吹け星の风
第七话「沙之海的海火子」砂の海のウミヒコ
第八话「找寻星之石」欲しい星石みーっけ!
第九话「梅星婆婆现身」ウメ星ばあさん现る!
第十话「和大象一起寻找星石」象と一绪に星石さがし
第十一话「降雪的炽热山」アチアチ山に雪がふる!
第十二话「忍者的魔神忍神丸」お忍びマシン忍神丸
第十三话「恐怖的瑜珈术」恐怖のヘンテコヨガ
第十四话「颠倒熊猫町」パンダの町は上が下?
第十五话「洪水泛滥」パララッケで大洪水!
第十六话「波西愤怒的一球」ホッシー怒りの一球!
第十七话「龙神丸的宇宙之行」龙神丸宇宙へ行く!
第十八话「天气晴时多暴雨」天気予报は晴のち岚
第十九话「那位才是真公主」どっちが本当のお姫様?
第二十话「跑啊 宇宙列车!」走れスペーストロッコ!
第二十一话「星之力大逆转」星力パワーで大逆転!
第二十二话「海底寻宝」宝さがしでトロピカル!
第二十三话「古拉马归来」かえってきたクラマ!
第二十四话「红白野地大战」红白ヤジの実合戦!!
第二十五话「大海的男人埃拉哈里船长」海の男だエラハリ船长!!
第二十六话「人鱼村危机」人鱼の村で大ピンチ!!
第二十七话「黑暗中消失的龙神丸」闇に消えた龙神丸!
第二十八话「超激斗!龙星丸!」超ファイト! 龙星丸
第二十九话「嗜睡的西部城市」西部の町で眠りたーい!
第三十话「金婆婆的有趣故事」キンババのおいしい话
第三十一话「黑暗降临电影城」シネマの町に闇がくる!
第三十二话「日美子的梦是怎样的梦?」ヒミコの梦はどんな梦?
第三十三话「寻回朝向海边的真爱!」海に见つけた真実の爱!
第三十四话「古拉马 爱的再临」クラマ! 爱ふたたび!
第三十五话「花与剑!施巴拉古的爱」花と剣! シバラクの爱
第三十六话「奔向光明」辉く明日に向かって
第三十七话「当心暗夜乌鸦」闇夜のカラスにご用心?
第三十八话「再见,施巴拉古师父」さよならシバラク先生
第三十九话「真的吗?虎王登场?」本当にホント 虎王登场?
第四十话「恐怖的力量」恐怖のプンスカパワー
第四十一话「魔界施巴拉古的陷阱」魔界シバラクの罠!
第四十二话「悲伤的莫德兰」哀しみのマーダレス
第四十三话「海火子悲伤的重逢」海火子 哀しみの再会
第四十四话「复活!恐怖的暗黑龙」复活! 恐怖の暗黒龙
第四十五话「战部渡!最后的决战」ワタル 最后の戦い!
第四十六话「然后 在彩虹之彼方」そして、虹の彼方で

请大家用BT种子下载.因为种子来自国外,里面有个外国字幕.
里面没中文字幕,但有源.

或把电驴的链接,加到迅雷离线里下载.迅雷离线的服务器里有资源,速度用过的都知道很快.

F:\Mashin_Eiyuuden_Wataru_2_(魔神英雄伝ワタル2)_TV_01-46_(RAW)wmv版本\[魔神英雄伝ワタル2]Mashin_Eiyuuden_Wataru_S02_ep01.wmv
General
Complete name : F:\Mashin_Eiyuuden_Wataru_2_(魔神英雄伝ワタル2)_TV_01-46_(RAW)wmv版本\[魔神英雄伝ワタル2]Mashin_Eiyuuden_Wataru_S02_ep01.wmv
Format : Windows Media
File size : 266 MiB
Duration : 23mn 55s
Overall bit rate mode : Variable
Overall bit rate : 1 555 Kbps
Maximum Overall bit rate : 2 803 Kbps
Track name/Position : 255
Encoded date : UTC 2004-07-25 01:44:16.859
MediaFoundationVersion : 2.112
Video #2
ID : 2
Format : VC-1
Format profile : MP@ML
Codec ID : WMV3
Codec ID/Info : Windows Media Video 9
Codec ID/Hint : WMV3
Description of the codec : Windows Media Video 9
Duration : 23mn 55s
Bit rate mode : Variable
Bit rate : 1 370 Kbps
Width : 640 pixels
Height : 480 pixels
Display aspect ratio : 4:3
Frame rate : 23.976 fps
Bit depth : 8 bits
Scan type : Progressive
Compression mode : Lossy
Bits/(Pixel*Frame) : 0.186
Stream size : 234 MiB (88%)
Language : Japanese
Audio #1
ID : 1
Format : WMA
Format profile : Pro
Codec ID : 162
Codec ID/Info : Windows Media Audio
Description of the codec : Windows Media Audio 9 Professional - 192 kbps, 48 kHz, 2 channel 24 bit 2-pass VBR
Duration : 23mn 55s
Bit rate mode : Variable
Bit rate : 178 Kbps
Channel(s) : 2 channels
Sampling rate : 48.0 KHz
Bit depth : 24 bits
Stream size : 30.4 MiB (11%)
Language : Japanese

IPB Image

正在读取……

这里是其它用户补充的资源(我也要补充):

暂无补充资源
正在加载,请稍等...

点击查看所有13网友评论

 

(?) [公告]留口水、评论相关规则 | [活动]每日签到 轻松领取电驴经验

    小贴士:
  1. 类似“顶”、“沙发”之类没有营养的文字,对勤劳贡献的楼主来说是令人沮丧的反馈信息。
  2. 提问之前请再仔细看一遍楼主的说明,或许是您遗漏了。
  3. 勿催片。请相信驴友们对分享是富有激情的,如果确有更新版本,您一定能搜索到。
  4. 请勿到处挖坑绊人、招贴广告。既占空间让人厌烦,又没人会搭理,于人于己都无利。
  5. 如果您发现自己的评论不见了,请参考以上4条。