v

您的位置:VeryCD动漫电视动画

动漫资源事务区


《魔神英雄传》(Mashin Eiyuuden Wataru)日语外挂字幕[DVDRip]

  • 状态: 精华资源
  • 摘要:
    语言日语
  • 时间: 2012/03/21 14:15:39 发布 | 2012/04/07 15:02:34 更新
  • 分类: 动漫  电视动画 

999jjj

精华资源: 3

全部资源: 14

相关: 分享到新浪微博   转播到腾讯微博   分享到开心网   分享到人人   分享到QQ空间   订阅本资源RSS更新   美味书签  subtitle
该内容尚未提供权利证明,无法提供下载。
中文名魔神英雄传
英文名Mashin Eiyuuden Wataru
别名魔神英雄伝ワタル,神龙斗士,魔神英雄传
资源格式DVDRip
版本日语外挂字幕
导演井内秀治
地区日本
语言日语
简介

奇幻世界左开山(创界山)众神云集,山分为七层,然罪恶之神多古达统治了这个世界后,其邪恶部众把守左开山各层要地。黑暗降临,连美丽的彩虹也变成了灰色。四年级小学生战部渡(瓦塔诺)在神明的召唤下进入奇幻世界,他操纵着龙神丸与虎王、剑部施巴拉古大师以及忍部火美子(希米格)等好友为恢复左开山的光明,与多古达的暗黑军团展开一连串激烈的战斗。

本片为《魔神英雄传》系列第一部。IPB ImageIPB Image

此套视频文件来自,http://www.torrentreactor.net/ 国外英文BT网站
视频制做日期Potplayer播放器显示为2004年.以不知道是在啥里提取压制的视频.
所以j就添的DVDRip.

F:\Mashin_Eiyuuden_Wataru_(魔神英雄伝ワタル)_TV_01-45_(RAW)\Mashin_Eiyuuden_Wataru_S01_ep01.wmv
General
Complete name : F:\Mashin_Eiyuuden_Wataru_(魔神英雄伝ワタル)_TV_01-45_(RAW)\Mashin_Eiyuuden_Wataru_S01_ep01.wmv
Format : Windows Media
File size : 253 MiB
Duration : 23mn 58s
Overall bit rate mode : Variable
Overall bit rate : 1 474 Kbps
Maximum Overall bit rate : 2 907 Kbps
Track name/Position : 255
Encoded date : UTC 2004-03-10 13:43:06.631
MediaFoundationVersion : 2.112
Video #2
ID : 2
Format : VC-1
Format profile : MP@ML
Codec ID : WMV3
Codec ID/Info : Windows Media Video 9
Codec ID/Hint : WMV3
Description of the codec : Windows Media Video 9
Duration : 23mn 58s
Bit rate mode : Variable
Bit rate : 1 292 Kbps
Width : 640 pixels
Height : 480 pixels
Display aspect ratio : 4:3
Frame rate : 23.976 fps
Bit depth : 8 bits
Scan type : Progressive
Compression mode : Lossy
Bits/(Pixel*Frame) : 0.175
Stream size : 222 MiB (88%)
Language : Japanese
Audio #1
ID : 1
Format : WMA
Format profile : Pro
Codec ID : 162
Codec ID/Info : Windows Media Audio
Description of the codec : Windows Media Audio 9 Professional - 192 kbps, 48 kHz, 2 channel 24 bit 2-pass VBR
Duration : 23mn 58s
Bit rate mode : Variable
Bit rate : 174 Kbps
Channel(s) : 2 channels
Sampling rate : 48.0 KHz
Bit depth : 24 bits
Stream size : 29.8 MiB (12%)
Language : Japanese

非本人制做,我只是在电驴上找不到这样的版本.
才去百度搜索到的,对我来说一个不懂外语的人能把这个资源找到真的很不容易的.

现在迅雷离线里有源.我没时间供源,以后我会上传到115网盘里,现在115还没人传过,所以不能秒传.
我这上传最大速度是45KB/S,要很久能传完.


魔神英雄伝ワタル1
第一话「救世主是小学四年生」救世主は小学四年生
第二话「发现不思议的道具」ふしぎアイテム へん玉みっけ!
第三话「当心古拉玛」クラマに御用心!
第四话「哗啦村的恐怖派对」ガラガラ村の恐怖パーティ
第五话「响吧!神部之笛」ひびけ!神部の笛
第六话「颠倒的奇怪地方」アベコベさかさまヘンなとこ
第七话「狼人喜欢圆形?!」狼男はおマルがお好き!?
第八话「吸血鬼是十字架的收藏者」吸血鬼は十字架コレクター
第九话「令人震惊的世纪之镜侦察器」おどろき!世纪の镜探知器
第十话「甚么?这是真正的真实之镜」ウッソー!ホントにこれが真実の镜?
第十一话「哈哈.熊熊的一次决胜」アチアチ?メラメラ一本胜负!
第十二话「玛莉安妮特的闪亮纪念日」マリアンネットのヤキヤキ记念日!
第十三话「燃烧的斗魂!9×9=81的攻击」燃える闘魂9×9=81攻撃!
第十四话「百人力量是仙人力量」ヒャクニーンパワーは仙人パワー
第十五话「苏醒!火龙」よみがえれ!ファイヤードラゴン
第十六话「悲恋!极光传说」悲恋、オーロラ伝说
第十七话「拔不出来的极寒之剑」抜くに抜けない极寒の剣
第十八话「爆热的前进飞行」热いの热いのとんでいけー!
第十九话「飞吧飞吧!龙神丸」龙神丸!とびますとびます
第二十话「龙神丸!冰冷神殿的骚乱」龙神丸ヒエヒエ神殿に散る!
第二十一话「魔界王子.虎王登场」魔界プリンス 虎王登场!
第二十二话「必见!龙王丸诞生」必见!龙王丸诞生
第二十三话「幻神丸的真正身分」おまたせ!幻神丸の正体
第二十四话「爆走!渡的大赛车」爆走!ワタルGENJIの大レース
第二十五话「迷你迷你渡的大冒险」ミニミニワタルの大冒険
第二十六话「耶!绿龙竟在那种地方?」ギョエー!あんなところに緑龙
第二十七话「太好了真是太好了」ヨカッタネでよかったね
第二十八话「魔法舞会!施巴拉古师父」魔法でウッフン!シバラク先生
第二十九话「变身!渡变狗狗故事」変身!ワタルのわんわん物语
第三十话「魔神坟场中的幽灵军团」魔神墓场のゴースト军団
第三十一话「日美子的褓姆大作战」ヒミコの子守り大作戦!
第三十二话「最强的魔法使.阿拉?比亚的攻击」最强魔法使いアラ?ビアンの逆袭!
第三十三话「甜蜜诱惑 恐怖的魔道门!」あまいお诱い恐怖の魔道门!
第三十四话「难问题.怪问题 魔风门!」难问、珍问 魔风门!
第三十五话「直上升天!魔天门」天まで升れ!魔天门
第三十六话「好孩子?坏孩子?魔界门」良い子?悪い子?魔界门
第三十七话「渡和日美子的热情历险」ワタルとヒミコのアチアチアドベンチャー
第三十八话「华丽怪盗.苏洛利参上」华丽!!怪杰ゾロリ参上
第三十九话「虎王是命运中的宿敌」虎王は宿命のライバル
第四十话「激斗!龙王丸对邪虎丸」激突!龙王丸対邪虎丸
第四十一话「出现!恐怖的魔神殿」出现!恐怖の魔神殿
第四十二话「战斗吧!渡!魔神殿攻防战」戦えワタル!!魔神殿の攻防
第四十三话「决战!道古达对渡」决戦!ドアクダー対ワタル
第四十四话「光辉!创界山的彩虹」辉け!创界山の虹
第四十五话「问者村的春之祭」春だ祭りだモンジャ村

正在读取……

这里是其它用户补充的资源(我也要补充):

暂无补充资源
正在加载,请稍等...

点击查看所有19网友评论

 

(?) [公告]留口水、评论相关规则 | [活动]每日签到 轻松领取电驴经验

    小贴士:
  1. 类似“顶”、“沙发”之类没有营养的文字,对勤劳贡献的楼主来说是令人沮丧的反馈信息。
  2. 提问之前请再仔细看一遍楼主的说明,或许是您遗漏了。
  3. 勿催片。请相信驴友们对分享是富有激情的,如果确有更新版本,您一定能搜索到。
  4. 请勿到处挖坑绊人、招贴广告。既占空间让人厌烦,又没人会搭理,于人于己都无利。
  5. 如果您发现自己的评论不见了,请参考以上4条。