v

您的位置:VeryCD动漫动漫周边

动漫资源事务区


《飞屋环游记短片Mika背景音乐版》(Up)[MAD][720P]

  • 状态: 精华资源
  • 摘要:
    发行时间2010年7月16日
    对白语言英语
    文字语言英文
  • 时间: 2012/02/01 13:23:19 发布 | 2012/02/05 15:30:40 更新
  • 分类: 动漫  动漫周边 

clarkxdy

精华资源: 29

全部资源: 30

相关: 分享到新浪微博   转播到腾讯微博   分享到开心网   分享到人人   分享到QQ空间   订阅本资源RSS更新   美味书签  subtitle
该内容尚未提供权利证明,无法提供下载。
中文名飞屋环游记短片Mika背景音乐版
英文名Up
别名天外奇迹/冲天救兵/冲天奇兵
版本[MAD][720P]
发行时间2010年7月16日
地区美国
对白语言英语
文字语言英文
简介

IPB Image

2010年7月就做完的,第一次传到优酷上时被屏蔽了...后来就没怎么动了,现在放假了就把它拿出来晒晒.

记得当时刚看了飞屋正好当时又很喜欢Mika的歌,于是就把他俩整一起了,然后又添了歌词(这个太耗时了...一句一句加...),做了几天才完.

视频:飞屋环游记
BGM:Happy Ending - Mika

土豆在线观看:

可原画下载.

迅雷快传:http://kuai.xunlei.com/d/NTDGSQJYAMPB

视频截图:

IPB Image

IPB Image

IPB Image

IPB Image

Media Info:

Format : AVI
Format/Info : Audio Video Interleave
File size : 150 MiB
Duration : 4mn 43s
Overall bit rate : 4 426 Kbps
Writing application : MEncoder SVN-r29352(20090610-gcc4.3.3)
Writing library : MPlayer

Video
ID : 0
Format : MPEG-4 Visual
Format profile : Simple@L1
Format settings, BVOP : No
Format settings, QPel : No
Format settings, GMC : No warppoints
Format settings, Matrix : Default (H.263)
Codec ID : DX50
Codec ID/Hint : DivX 5
Duration : 4mn 43s
Bit rate : 4 287 Kbps
Width : 1 280 pixels
Height : 720 pixels
Display aspect ratio : 16:9
Frame rate : 23.976 fps
Color space : YUV
Chroma subsampling : 4:2:0
Bit depth : 8 bits
Scan type : Progressive
Bits/(Pixel*Frame) : 0.194
Stream size : 145 MiB (97%)
Writing library : Lavc52.30.2

Audio
ID : 1
Format : MPEG Audio
Format version : Version 1
Format profile : Layer 3
Mode : Joint stereo
Mode extension : MS Stereo
Codec ID : 55
Codec ID/Hint : MP3
Duration : 4mn 43s
Bit rate mode : Constant
Bit rate : 128 Kbps
Channel(s) : 2 channels
Sampling rate : 44.1 KHz
Stream size : 4.33 MiB (3%)
Alignment : Aligned on interleaves
Interleave, duration : 26 ms (0.63 video frame)
Interleave, preload duration : 522 ms
Writing library : LAME3.98

正在读取……

这里是其它用户补充的资源(我也要补充):

暂无补充资源
正在加载,请稍等...

点击查看所有15网友评论

 

(?) [公告]留口水、评论相关规则 | [活动]每日签到 轻松领取电驴经验

    小贴士:
  1. 类似“顶”、“沙发”之类没有营养的文字,对勤劳贡献的楼主来说是令人沮丧的反馈信息。
  2. 提问之前请再仔细看一遍楼主的说明,或许是您遗漏了。
  3. 勿催片。请相信驴友们对分享是富有激情的,如果确有更新版本,您一定能搜索到。
  4. 请勿到处挖坑绊人、招贴广告。既占空间让人厌烦,又没人会搭理,于人于己都无利。
  5. 如果您发现自己的评论不见了,请参考以上4条。