v

您的位置:VeryCD音乐演唱会

音乐资源事务区


Robert Plant -《Move On》[DVDRip]

  • 状态: 精华资源
  • 摘要:
    发行时间2011年
    语言英语
  • 时间: 2012/01/28 22:00:38 发布 | 2012/01/29 13:23:51 更新
  • 分类: 音乐  演唱会 

MTina

精华资源: 3862

全部资源: 3863

相关: 分享到新浪微博   转播到腾讯微博   分享到开心网   分享到人人   分享到QQ空间   订阅本资源RSS更新   美味书签  subtitle
该内容尚未提供权利证明,无法提供下载。
专辑中文名Move On
歌手Robert Plant
资源格式DVDRip
发行时间2011年
地区英国
语言英语
简介

IPB Image

内容介绍:

  英国摇滚歌手及词曲作家。他很早就对音乐有极大的兴趣,十五岁那年就已经在俱乐部演唱,他当时学习美国一些知名的蓝调歌手唱腔,至于摇滚乐方面,影响他最深的是猫王Elvis Presley和Gene Vincent。那时候的曲风是偏重节奏蓝调,1967年间,他曾出过个人专辑,不过那时他的潜能还未完全激发出来,1968年,Robert Plant加入Led Zeppelin,并推荐好友John Bonham一起进到Led Zeppelin。Robert Plant的演唱方式,除了基本的重金属摇滚特质外,民谣,节奏蓝调的唱腔也诠释的极为成功,在舞台上的演出更是令歌迷为之疯狂。

  Robert Anthony Plant, 罗伯特. 安东尼. 普朗特(CBE), 生于1948年8月20日,英国摇滚歌手,词曲作者。Robert 作为七十年代英国最著名的摇滚乐队之一的齐柏林飞艇(Led Zepplin) 的主唱和词作者而广为人知。1980年齐柏林飞艇解散后,Robert开始了的单飞生涯。2007年Robert与蓝草歌手Alison Krauss合作发行了Raising Sand, 并于2009年一举荣获五项格莱梅大奖。Raising Sand更被评为年度最佳唱片。
  在他四十年的音乐生涯中,Robert Plant 一直被认为是摇滚乐历史上最重要的歌手之一,并且对后来的歌手们诸如Freddie Mercury( Queen) ,Axl Rose(Guns and Roses)等产生了巨大的影响。2006年,重金属音乐杂志Hit Parader称其为“史上最伟大的金属歌手”。2009年,Robert被Planet Rock杂志评为“摇滚史上最伟大的声音” 。 2011年,滚石杂志“摇滚最佳主唱”排行榜将Robert列在第一位。Robert高大俊美,舞台表演热情狂野,兼之一头灿烂的金发,被乐迷们称为“Golden God”。
  Robert 的成功始于齐柏林飞艇,在他遇到吉他手JimmyPage的时候。1968年,Jimmy刚刚解散YardBirds, 正在找合适的乐手来组乐队发展自己的新方向。当时他的首选并不是Robert,而是TerryReid。但是时Terry已经答应在另一个乐队担任主唱了,所以他把Robert推荐给了Jimmy。 Jimmy第一次听Robert唱歌是在伯明翰的一所教师培训学校里。Jimmy后来回忆这次见面的时候说:“当我第一次听见他唱歌的时候,我第一反应就是他肯定性格有问题或者特别的难相处。不然我完全难以理解,以他这样的声音,居然在已经唱了好几年之后,竟然还是默默无闻。所以我把他请到我家去住了一段时间,只是为了试试我们能不能相处。事实上我们俩相处得很好,一点问题都没有。”
  
  Robert和Jimmy一拍即合,他们俩立即开始一起动手改写一些老蓝调,比如“BabyI’m gonna leave you”。但是由于Robert与之前公司的合同问题,在他们的第一张专辑LedZepplin上Robert没有作为词曲作者冠名。此时Jimmy的新乐队也已经初见雏型,Robert把Bonzo引荐给Jimmy作为鼓手,而贝斯手由Jimmy之前的老朋友JonePaul Jones (JPJ) 担任。这个乐队在1968年初建的时候仍叫做“NewYardbirds”,但是很快改名为LedZepplin,并在1969年出版了同名专辑。这张专辑一直被认为是重金属摇滚的开山鼻祖之作,但是Robert却认为把led Zepplin叫做重金属乐队并不全面,因为他们有至少三分之一的作品是民谣风格的。
  Robert在1969年出版的他们的第二张专辑中开始尝试作词,在这张专辑中,Robert写了“ThankYou”,他把这首歌献给了自己的妻子Maureen,感谢她长久以来的陪伴和支持。Robert的歌词通常带有神秘色彩,他受奇幻作家托尔金的影响很大,"TheBattle of Evermore", "Misty Mountain Hop", "Over the Hillsand Far Away”等歌都是向托尔金的指环王系列致敬的作品。
  1971年,齐柏林出版了他们最伟大的作品LedZepplin IV。在这张专辑中,最为耀眼自然是Stairway toHeaven. 这首成功融合了民谣,蓝调,凯尔特音乐和摇滚各种元素的作品是摇滚史上最伟大的作品之一。这首歌的词作者同样是Robert。随着LedZepplin IV的发行,Led Zepplin成为70年代最受欢迎的摇滚乐队。
  1980年,齐柏林飞艇因鼓手Bonzo因醉酒窒息过世而解散。

Robert Anthony Plant, CBE (born 20 August 1948) is an English singer and songwriter best known as the vocalist and lyricist of the iconic rock band Led Zeppelin. He has also had a successful solo career. In 2007, Plant released Raising Sand, an album produced by T-Bone Burnett with American bluegrass soprano Alison Krauss, which won the 2009 Grammy Award for Album of the Year at the 51st Grammy Awards.

With a career spanning more than 40 years, Plant is regarded as one of the most significant singers in the history of rock music, and has influenced contemporaries and later singers such as Freddie Mercury and Axl Rose. In 2006, heavy metal magazine Hit Parader named Plant the "Greatest Metal Vocalist of All-Time". In 2009, Plant was voted "the greatest voice in rock" in a poll conducted by Planet Rock. In 2011, a Rolling Stone readers' pick placed Plant in first place of the magazine's "Best Lead Singers of All Time".

IPB Image

IPB Image

IPB Image

IPB Image

引用
General
Complete name : C:\Users\Sunshine\Downloads\eMule\Incoming\Robert_Plant_-_Move_On.(2011).[DD5.DVDRip.Storm].avi
Format : AVI
Format/Info : Audio Video Interleave
File size : 1.36 GiB
Duration : 1h 23mn
Overall bit rate : 2 341 Kbps
Movie name : Robert Plant - Move On (2011).[DD5.DVDRip.Storm]
Genre : Concert
Original source form/Name : Music Clips
Copyright : AlexStorm

Video
ID : 0
Format : MPEG-4 Visual
Format profile : Advanced Simple@L5
Format settings, BVOP : 1
Format settings, QPel : No
Format settings, GMC : No warppoints
Format settings, Matrix : Default (MPEG)
Codec ID : XVID
Codec ID/Hint : XviD
Duration : 1h 23mn
Bit rate : 1 883 Kbps
Width : 720 pixels
Height : 416 pixels
Display aspect ratio : 16:9
Frame rate : 25.000 fps
Color space : YUV
Chroma subsampling : 4:2:0
Bit depth : 8 bits
Scan type : Progressive
Compression mode : Lossy
Bits/(Pixel*Frame) : 0.251
Stream size : 1.10 GiB (80%)
Writing library : XviD 1.1.2 (UTC 2006-11-01)

Audio
ID : 1
Format : AC-3
Format/Info : Audio Coding 3
Mode extension : CM (complete main)
Codec ID : 2000
Duration : 1h 23mn
Bit rate mode : Constant
Bit rate : 448 Kbps
Channel(s) : 6 channels
Channel positions : Front: L C R, Side: L R, LFE
Sampling rate : 48.0 KHz
Bit depth : 16 bits
Compression mode : Lossy
Delay relative to video : 200ms
Stream size : 267 MiB (19%)
Alignment : Split accross interleaves
Interleave, duration : 40 ms (1.00 video frame)
Interleave, preload duration : 500 ms
Language : English



专辑曲目

Robert Plant & Band of Joy Nasville 2011:

01. angel dance
02. house of cards
03. cindy, i'll marry you one day
04. somewhere trouble don't go
05. satan your kingdom must come down
06. a satisfied mind
07. move up
08. ramble on
09. gallows pole
10. down to the sea
11. rock and roll

Robert Plant feat. Alison Krauss and T-Bone Burnett Lebanon, Tennessee 2007:

12. gone gone gone
13. the boy who wouldn't hoe corn
14. when the levee breaks
15. black dog
16. stick with me baby
17. rich woman
18. please read the letter

正在读取……

这里是其它用户补充的资源(我也要补充):

暂无补充资源
正在加载,请稍等...

点击查看所有12网友评论

 

(?) [公告]留口水、评论相关规则 | [活动]每日签到 轻松领取电驴经验

    小贴士:
  1. 类似“顶”、“沙发”之类没有营养的文字,对勤劳贡献的楼主来说是令人沮丧的反馈信息。
  2. 提问之前请再仔细看一遍楼主的说明,或许是您遗漏了。
  3. 勿催片。请相信驴友们对分享是富有激情的,如果确有更新版本,您一定能搜索到。
  4. 请勿到处挖坑绊人、招贴广告。既占空间让人厌烦,又没人会搭理,于人于己都无利。
  5. 如果您发现自己的评论不见了,请参考以上4条。