v

您的位置:VeryCD音乐演唱会

音乐资源事务区


Various Artists -《歌剧魅影25周年纪念演出》SPRiNTER[BDRip]

  • 状态: 精华资源
  • 摘要:
    发行时间2011年11月14日
    语言英语
  • 时间: 2012/01/10 03:36:52 发布 | 2012/01/10 10:24:21 更新
  • 分类: 音乐  演唱会 

life_is_good

精华资源: 6571

全部资源: 7301

相关: 分享到新浪微博   转播到腾讯微博   分享到开心网   分享到人人   分享到QQ空间   订阅本资源RSS更新   美味书签  subtitle
该内容尚未提供权利证明,无法提供下载。
专辑中文名歌剧魅影25周年纪念演出
资源格式BDRip
版本SPRiNTER
发行时间2011年11月14日
地区英国
语言英语
简介

IPB Image

内容介绍:

引用
这是一场为庆祝音乐剧《剧院魅影》成功上演25周年的音乐会,地点在英国伦敦的皇家阿尔伯特大厅(Royal Albert Hall)。活动于2011年10月1日晚、次日下午和晚上,一共进行了3场声势浩大的演出,为到场的音乐剧迷们奉献了一次震撼人心的视听盛宴。演出同时,其实况录像也在英美的大银幕上映。
  阵容方面,伊朗裔加拿大音乐剧男演员Ramin Karimloo领衔主演男主角幽灵(The Phantom),美国音乐剧女演员Sierra Boggess饰演女主角克里斯蒂(Christine Daaé)。两人在韦伯2010年的一部作为《剧院魅影》续集的新剧《魅影:爱无止尽》(Love Never Dies)中,曾联袂合作,是《Love Never Dies》伦敦首演版的男女主角。而在此之前,Ramin Karimloo曾在07至09年《剧院魅影》伦敦版剧组扮演幽灵;而Sierra Boggess是《魅影》拉斯维加斯首演版的Christine,因此二人虽然早已对各自的角色驾轻就熟,而且有过合作经历,但这3场音乐会之前还不曾同台演绎过这部韦伯的经典名剧。演出最后,来自世界各地的《魅影》原创艺术家们一同上台,庆祝他们为之奉献的舞台经典。
  音乐剧《剧院魅影》(The Phantom of The Opera)由安德鲁•劳埃德•韦伯(Andrew Lloyd Webber)作曲创作,改编自法国小说家Gaston Leroux的同名小说,被认为是音乐剧的一部撼世之作。该剧自1986年在伦敦西区首演以来,长盛不衰,成为伦敦西区第二长寿的音乐剧(在伦敦目前仅次于《悲惨世界》)。在美国纽约百老汇,该剧的纽约制作版自1988年上演至今,于2006年打破了由《猫》创造的连演纪录,成为了百老汇历史上最长寿的音乐剧。2004年,由乔尔•舒马赫导演的电影版本上映。在世界范围内,该剧取得了近60多项主要的戏剧奖项。截止到2011年,已在全球27个国家、 145个城市上演过,发行过不同语言、不同制作版本的唱片。2004年,该剧第一次与中国大陆观众见面,当时的亚洲巡演制作版剧组,在上海大剧院连演近百场,轰动申城的文艺界,成为上海年度文化盛事之一。25年来,《剧院魅影》累计票房收入超过到32亿,压倒任何一部电影作品。目前该剧的英语剧组版本在伦敦、纽约、拉斯维加斯三地常驻当地剧院演出。
  关于这部戏的创作团队,金牌戏剧制作人卡梅隆•麦金托什(Cameron Mackintosh)是该剧从早期创作、上演到现如今运营的制作人,Charles Hart和Richard Stilgoe作词,舞台版总导演是著名舞台剧导演Harold Prince。

视频截图:

IPB Image

IPB Image

编码参数:

代码
The.Phantom.Of.The.Opera.At.The.Royal.Albert.Hall.2011.BDRip.XviD-SPRiNTER

Format                           : AVI
Format/Info                      : Audio Video Interleave
File size                        : 1.37 GiB
Duration                         : 2h 39mn
Overall bit rate mode            : Variable
Overall bit rate                 : 1 225 Kbps
Writing application              : VirtualDubMod 1.5.10.2 (build 2540/release)
Writing library                  : VirtualDubMod build 2540/release

Video
ID                               : 0
Format                           : MPEG-4 Visual
Format profile                   : Advanced Simple@L5
Format settings, BVOP            : 2
Format settings, QPel            : No
Format settings, GMC             : No warppoints
Format settings, Matrix          : Default (H.263)
Codec ID                         : XVID
Codec ID/Hint                    : XviD
Duration                         : 2h 39mn
Bit rate                         : 1 072 Kbps
Width                            : 624 pixels
Height                           : 352 pixels
Display aspect ratio             : 16:9
Frame rate                       : 23.976 fps
Color space                      : YUV
Chroma subsampling               : 4:2:0
Bit depth                        : 8 bits
Scan type                        : Progressive
Compression mode                 : Lossy
Bits/(Pixel*Frame)               : 0.204
Stream size                      : 1.20 GiB (87%)
Writing library                  : XviD 61

Audio
ID                               : 1
Format                           : MPEG Audio
Format version                   : Version 1
Format profile                   : Layer 3
Mode                             : Joint stereo
Mode extension                   : MS Stereo
Codec ID                         : 55
Codec ID/Hint                    : MP3
Duration                         : 2h 39mn
Bit rate mode                    : Variable
Bit rate                         : 141 Kbps
Minimum bit rate                 : 128 Kbps
Channel(s)                       : 2 channels
Sampling rate                    : 48.0 KHz
Compression mode                 : Lossy
Stream size                      : 161 MiB (11%)
Alignment                        : Aligned on interleaves
Interleave, duration             : 24 ms (0.58 video frame)
Interleave, preload duration     : 131 ms
Writing library                  : LAME3.95
Encoding settings                : -m j -V 4 -q 3 -lowpass 18 --vbr-old -b 128



专辑曲目

01. Prologue - The Stage Of Paris Opera House, 1905
02. Overture
03. Think Of Me
04. Angel Of Music
05. Little Lotte .../The Mirror ...(Angel Of Music)
06. The Phantom Of The Opera
07. The Music Of the Night
08. I Remember .../Stranger Than You Dreamt It ...
09. Magical Lassoo
10. Notes .../Prima Donna
11. Poor Fool, He Makes Me Laugh
12. Why Have You Brought Me Here?/ Raoul, I've Been There
13. All I Ask Of You
14. All I Ask Of You (Reprise)
15. Entr'acte - Act Two - Six Months Later
16. Masquerade / Why So Silent?
17. Notes .../Twisted Every Way
18. Wishing You Were Somehow Here Again
19. Wandering Child .../Bravo Bravo
20. The Point Of No Return
21. Down Once More .../Track Down This Murderer
22. Grand Finale

正在读取……

这里是其它用户补充的资源(我也要补充):

暂无补充资源
正在加载,请稍等...

点击查看所有28网友评论

 

(?) [公告]留口水、评论相关规则 | [活动]每日签到 轻松领取电驴经验

    小贴士:
  1. 类似“顶”、“沙发”之类没有营养的文字,对勤劳贡献的楼主来说是令人沮丧的反馈信息。
  2. 提问之前请再仔细看一遍楼主的说明,或许是您遗漏了。
  3. 勿催片。请相信驴友们对分享是富有激情的,如果确有更新版本,您一定能搜索到。
  4. 请勿到处挖坑绊人、招贴广告。既占空间让人厌烦,又没人会搭理,于人于己都无利。
  5. 如果您发现自己的评论不见了,请参考以上4条。