v

您的位置:VeryCD音乐日韩音乐

音乐资源事务区


福原希己江(Kimie Fukuhara) -《おいしいうた》专辑(MP3+FLAC)[MP3]

  • 状态: 精华资源
  • 摘要:
    音乐风格民谣
    发行时间2011年12月28日
    地区日本
    语言日语
  • 时间: 2012/01/06 18:37:54 发布 | 2012/10/10 22:22:50 更新
  • 分类: 音乐  日韩音乐 

三角HANE

精华资源: 963

全部资源: 965

相关: 分享到新浪微博   转播到腾讯微博   分享到开心网   分享到人人   分享到QQ空间   订阅本资源RSS更新   美味书签  subtitle
该内容尚未提供权利证明,无法提供下载。
专辑中文名おいしいうた
音乐风格民谣
资源格式MP3
版本专辑(MP3+FLAC)
发行时间2011年12月28日
地区日本
语言日语
简介

IPB Image

专辑介绍:

又一张让人等到几乎快死了的专辑!!!!!!!!!(其实我有原盘,但就是不放出来)我怎么这么欠扁呢 ̄▽ ̄

嘛嘛嘛~~福原希己江的MAJOR DEBUT专辑终于来了!!!!!!!之前indie时期的mini albumのろのらのらねこ也是好听到死!!(我还要再拆一张么~~~~(>_<)~~~~ 不要啊各位!!!放过我吧!!

这次的专辑中,也收录了indie时期的青椒肉絲等一系列歌曲。在日剧深夜食堂2中,她的声音,以及吉他温柔的声音,让我们记住了她!!专辑中也收录了あさりの酒蒸し这首插曲!!

这次的Major专辑实在是太让人喜欢了!!在冬天渐渐到来的时候,这张专辑还请各位多多支持咯!!!!!!

小羽的微博在此~欢迎大家来继续找我~有问题也可以通过这个来联系我哦~
http://weibo.com/1931006501

我说,KUGOO上最近也在开始猖狂了吗...到我资源也就算了,介绍还照抄我的!你难道语文没选好啊!没有发现有错别字啊!搞没搞错!都给我注意点!!

P.S小羽我真心希望大家不要随便发布到其他网站咯~~喜欢的话就请购买正版,不要为了3元的东西(都明白的是什么)就随便散布到网络!!。(小声的说,小羽我在网上出手自己的一些CD,有一部分是在驴子上发布过的资源→→→→→→→→)秘密地址

TBSドラマ「深夜食堂2」挿入歌としても知られる大注目のSSW福原希己江のデビューアルバム!
原作:安倍夜郎(小学館「ビックコミックオリジナル」連載中)TBSドラマ「深夜食堂」挿入歌として、大注目のSSW福原希己江(ふくはらきみえ)待望のデビューアルバムがクリスマスを前に誕生!

引用
Exact Audio Copy V0.99 prebeta 4 from 23. January 2008

EAC 抓取日志文件从6. 一月 2012, 14:04

未知艺术家 / 未知标题

使用驱动器 :PIONEER DVD-ROM DVD-130P Adapter: 0 ID: 0

读取模式 : 保护
使用精确流 : 是
废除音频缓冲 : 是
使用 C2 指针 : 否

读取偏移校正 : 6
读取 Lead-In 和 Lead-Out : 否
用静音填充抓取中丢失偏移的采样 : 是
去除首尾静音块 : 否
在 CRC 计算中使用了空样本 : 否
已用接口 : Win NT 及 2000 本地 Win32 接口
间隙处理 : 未检出,故附加至前一音轨

所用输出格式 : 内部 WAV 函数
样本格式 : 44.100 Hz;16 Bit;立体声


被抓轨 CD 的 TOC

音轨 | 开始 | 长度 | 起始扇区 | 结尾扇区
--------------------------------------------------
1 | 0:00.00 | 3:16.51 | 0 | 14750
2 | 3:16.51 | 2:22.74 | 14751 | 25474
3 | 5:39.50 | 4:26.10 | 25475 | 45434
4 | 10:05.60 | 4:20.40 | 45435 | 64974
5 | 14:26.25 | 1:47.52 | 64975 | 73051
6 | 16:14.02 | 3:24.25 | 73052 | 88376
7 | 19:38.27 | 1:41.00 | 88377 | 95951
8 | 21:19.27 | 3:36.04 | 95952 | 112155
9 | 24:55.31 | 4:02.73 | 112156 | 130378
10 | 28:58.29 | 4:24.23 | 130379 | 150201
11 | 33:22.52 | 3:59.38 | 150202 | 168164


音轨 1

文件名 C:\Track01.wav

峰值电平 78.1 %
音轨质量 100.0 %
复制 CRC B37547E8
音轨未在 AccurateRip 数据库中
复制成功

音轨 2

文件名 C:\Track02.wav

峰值电平 84.3 %
音轨质量 100.0 %
复制 CRC E9E6B180
音轨未在 AccurateRip 数据库中
复制成功

音轨 3

文件名 C:\Track03.wav

峰值电平 96.1 %
音轨质量 100.0 %
复制 CRC 4F1A326F
音轨未在 AccurateRip 数据库中
复制成功

音轨 4

文件名 C:\Track04.wav

峰值电平 76.6 %
音轨质量 100.0 %
复制 CRC 9AAB6C86
音轨未在 AccurateRip 数据库中
复制成功

音轨 5

文件名 C:\Track05.wav

峰值电平 100.0 %
音轨质量 100.0 %
复制 CRC 69FBBAE9
音轨未在 AccurateRip 数据库中
复制成功

音轨 6

文件名 C:\Track06.wav

峰值电平 95.8 %
音轨质量 100.0 %
复制 CRC E82EC5E7
音轨未在 AccurateRip 数据库中
复制成功

音轨 7

文件名 C:\Track07.wav

峰值电平 86.3 %
音轨质量 100.0 %
复制 CRC A6B2CBDB
音轨未在 AccurateRip 数据库中
复制成功

音轨 8

文件名 C:\Track08.wav

峰值电平 89.5 %
音轨质量 100.0 %
复制 CRC 632675AB
音轨未在 AccurateRip 数据库中
复制成功

音轨 9

文件名 C:\Track09.wav

峰值电平 87.2 %
音轨质量 100.0 %
复制 CRC 1721B956
音轨未在 AccurateRip 数据库中
复制成功

音轨 10

文件名 C:\Track10.wav

峰值电平 96.6 %
音轨质量 99.9 %
复制 CRC 984A4C31
音轨未在 AccurateRip 数据库中
复制成功

音轨 11

文件名 C:\Track11.wav

峰值电平 71.6 %
音轨质量 100.0 %
复制 CRC 27E6FCE3
音轨未在 AccurateRip 数据库中
复制成功


没有任何音轨出现在 AccurateRip 数据库中

没有错误发生

状态报告结尾



专辑曲目

1. できること
2. からあげ
3. 詞(うた)
4. なかないで
5. あさりの酒蒸し
6. 青椒肉絲(チンジャオロース)
7. 肉じゃが
8. たいやき
9. のらのらのらねこ
10. はねだ

正在读取……

这里是其它用户补充的资源(我也要补充):

暂无补充资源
正在加载,请稍等...

点击查看所有218网友评论

 

(?) [公告]留口水、评论相关规则 | [活动]每日签到 轻松领取电驴经验

    小贴士:
  1. 类似“顶”、“沙发”之类没有营养的文字,对勤劳贡献的楼主来说是令人沮丧的反馈信息。
  2. 提问之前请再仔细看一遍楼主的说明,或许是您遗漏了。
  3. 勿催片。请相信驴友们对分享是富有激情的,如果确有更新版本,您一定能搜索到。
  4. 请勿到处挖坑绊人、招贴广告。既占空间让人厌烦,又没人会搭理,于人于己都无利。
  5. 如果您发现自己的评论不见了,请参考以上4条。