v

您的位置:VeryCD游戏游戏周边

游戏资源事务区


《最终幻想13 Versus 宣传片》(FF13 demo versus whataya want from me)Adam Lambert背景音乐版

  • 状态: 精华资源
  • 摘要:
    发行时间2011年12月31日
    制作发行Square Enix
    Square Enix
    对白语言英语,日语
    文字语言英文,日文
  • 时间: 2012/01/01 11:09:40 发布 | 2012/01/10 22:20:08 更新
  • 分类: 游戏  游戏周边 

clarkxdy

精华资源: 29

全部资源: 30

相关: 分享到新浪微博   转播到腾讯微博   分享到开心网   分享到人人   分享到QQ空间   订阅本资源RSS更新   美味书签  subtitle
该内容尚未提供权利证明,无法提供下载。
中文名称最终幻想13 Versus 宣传片
英文名称FF13 demo versus whataya want from me
别名FF13 Versus
版本Adam Lambert背景音乐版
发行时间2011年12月31日
制作发行Square Enix
Square Enix
地区美国,日本
对白语言英语,日语
文字语言英文,日文
简介

IPB Image
[DEMO][最终幻想13 versus+whataya want from me宣传片][1280×720]


很喜欢FF13versus宣传片,看后之后便把这和Adam Lambert 的whataya want from me整在一起了。
个人觉得挺协调的~


土豆在线观看:

http://www.tudou.com/programs/view/U1UyO4Wps4Q/
可使用原画下载

迅雷快传http://kuai.xunlei.com/d/NAFCVFXBLSSM

迅雷网盘http://dynamic.xlpan.com/file/2836639/dd0d...6c47d59d

优酷在线观看:


视频截图:
IPB Image

IPB Image

IPB Image

IPB Image

IPB Image

Format : AVI
Format/Info : Audio Video Interleave
File size : 172 MiB
Duration : 4mn 6s
Overall bit rate : 5 840 Kbps
Writing application : MEncoder SVN-r29352(20090610-gcc4.3.3)
Writing library : MPlayer

Video
ID : 0
Format : MPEG-4 Visual
Format profile : Simple@L1
Format settings, BVOP : No
Format settings, QPel : No
Format settings, GMC : No warppoints
Format settings, Matrix : Default (H.263)
Codec ID : DX50
Codec ID/Hint : DivX 5
Duration : 4mn 6s
Bit rate : 5 699 Kbps
Width : 1 280 pixels
Height : 720 pixels
Display aspect ratio : 16:9
Frame rate : 29.970 fps
Color space : YUV
Chroma subsampling : 4:2:0
Bit depth : 8 bits
Scan type : Progressive
Bits/(Pixel*Frame) : 0.206
Stream size : 168 MiB (98%)
Writing library : Lavc52.30.2

Audio
ID : 1
Format : MPEG Audio
Format version : Version 1
Format profile : Layer 3
Mode : Joint stereo
Mode extension : MS Stereo
Codec ID : 55
Codec ID/Hint : MP3
Duration : 4mn 6s
Bit rate mode : Constant
Bit rate : 128 Kbps
Channel(s) : 2 channels
Sampling rate : 44.1 KHz
Stream size : 3.77 MiB (2%)
Alignment : Aligned on interleaves
Interleave, duration : 26 ms (0.78 video frame)
Interleave, preload duration : 522 ms
Writing library : LAME3.98

正在读取……

这里是其它用户补充的资源(我也要补充):

暂无补充资源
正在加载,请稍等...

点击查看所有40网友评论

 

(?) [公告]留口水、评论相关规则 | [活动]每日签到 轻松领取电驴经验

    小贴士:
  1. 类似“顶”、“沙发”之类没有营养的文字,对勤劳贡献的楼主来说是令人沮丧的反馈信息。
  2. 提问之前请再仔细看一遍楼主的说明,或许是您遗漏了。
  3. 勿催片。请相信驴友们对分享是富有激情的,如果确有更新版本,您一定能搜索到。
  4. 请勿到处挖坑绊人、招贴广告。既占空间让人厌烦,又没人会搭理,于人于己都无利。
  5. 如果您发现自己的评论不见了,请参考以上4条。