v

您的位置:VeryCD音乐演唱会

音乐资源事务区


Slash -《Made in Stoke: Live 7 24 2011》[DVDRip]

  • 状态: 精华资源
  • 摘要:
    发行时间2011年
    语言英语
  • 时间: 2011/12/31 19:24:28 发布 | 2012/01/01 11:01:23 更新
  • 分类: 音乐  演唱会 

MTina

精华资源: 3862

全部资源: 3863

相关: 分享到新浪微博   转播到腾讯微博   分享到开心网   分享到人人   分享到QQ空间   订阅本资源RSS更新   美味书签  subtitle
该内容尚未提供权利证明,无法提供下载。
专辑中文名Made in Stoke: Live 7 24 2011
歌手Slash
资源格式DVDRip
发行时间2011年
地区美国
语言英语
简介

IPB Image

内容介绍:

 著名摇滚乐队枪炮与玫瑰的前主音吉他手于2011年7月24日维多利亚音乐厅的一场演唱会. 
Slash被称为杰出的音乐天才,是枪炮玫瑰乐队真正的灵魂。他制定了乐队的宗旨,引导乐队的前进。原名Saul Hudson,Slash是他的艺名。他是美籍英裔音乐人和作曲家,著名摇滚乐队枪炮与玫瑰的前主音吉他手、创始成员(1985年至1996年参与活动及录音)。离队后他创立了Snakepit,与枪花前队员Duff McKagan及Matt Sorum共组了Velvet Revolver。Slash的首张同名个人专辑发行于2010年4月,之后他与歌手Myles Kennedy巡演推广该专辑。第二张个人专辑预计于2012年发行。作为一个吉他手Slash荣获众多荣誉,2009年八月,时代杂志将其列为十大时尚最佳电吉他手的第2名,他在Gigwise的史上五十位最伟大吉他手榜单上列21名。SLASH还在一些艺人演出中担任过吉他手,例如Michael Jackson。并且在1995年的MTV颁奖礼上与Michael·Jackson同台演出,引起一片尖叫。


Made in Stoke 24/7/11 is a concert film and live album by former Guns N' Roses and current Velvet Revolver guitarist Slash featuring Alter Bridge frontman Myles Kennedy, released on November 14, 2011. The show is the first concert Slash has ever performed at his hometown of Stoke-on-Trent, recorded on July 24, 2011, at the Victoria Hall.

Like on the rest of his world tour supporting his first solo album, Slash has performed many songs on this show, ranging from solo songs from the debut record, as well as Guns N' Roses, Velvet Revolver and Slash's Snakepit songs.


Personnel
Slash – lead guitar
Myles Kennedy – lead vocals, rhythm guitar on "Nothing to Say" and "Watch This"
Bobby Schneck – rhythm guitar
Todd Kerns – bass, backing vocals, lead vocals on "Doctor Alibi"
Brent Fitz - drums

IPB Image

IPB Image

代码
General
Complete name                    : C:\Users\Sunshine\Downloads\eMule\Incoming\Slash - Live - Made In Stoke 24_7_11_DvdRip-xguyx.avi
Format                           : AVI
Format/Info                      : Audio Video Interleave
File size                        : 1.37 GiB
Duration                         : 2h 5mn
Overall bit rate                 : 1 560 Kbps
Writing application              : VirtualDubMod 1.5.4.1 (build 2178/release)
Writing library                  : VirtualDubMod build 2178/release

Video
ID                               : 0
Format                           : MPEG-4 Visual
Format profile                   : Advanced Simple@L5
Format settings, BVOP            : 1
Format settings, QPel            : No
Format settings, GMC             : No warppoints
Format settings, Matrix          : Custom
Codec ID                         : XVID
Codec ID/Hint                    : XviD
Duration                         : 2h 5mn
Bit rate                         : 1 360 Kbps
Width                            : 608 pixels
Height                           : 352 pixels
Display aspect ratio             : 16:9
Frame rate                       : 29.970 fps
Color space                      : YUV
Chroma subsampling               : 4:2:0
Bit depth                        : 8 bits
Scan type                        : Progressive
Compression mode                 : Lossy
Bits/(Pixel*Frame)               : 0.212
Stream size                      : 1.19 GiB (87%)
Writing library                  : XviD 1.2.1 (UTC 2008-12-04)

Audio
ID                               : 1
Format                           : AC-3
Format/Info                      : Audio Coding 3
Mode extension                   : CM (complete main)
Codec ID                         : 2000
Duration                         : 2h 5mn
Bit rate mode                    : Constant
Bit rate                         : 192 Kbps
Channel(s)                       : 2 channels
Channel positions                : Front: L R
Sampling rate                    : 48.0 KHz
Bit depth                        : 16 bits
Compression mode                 : Lossy
Stream size                      : 172 MiB (12%)
Alignment                        : Split accross interleaves
Interleave, duration             : 96 ms (2.88 video frames)
Interleave, preload duration     : 96 ms
Language                         : English



专辑曲目

01.Been There Lately
02.Nightrain
03.Ghost
04.Mean Bone
05.Back From Cali
06.Rocket Queen
07.Civil War
08.Nothing To Say
09.Starlight
10.Promise
11.Doctor Alibi
12.Speed Parade
13.Watch This
14.Beggars & Hangers On
15.Patience
16.Godfather Solo
17.Sweet Child O' Mine
18.Slither
19.By The Sword
20.Mr Brownstone
21.Paradise CIty

正在读取……

这里是其它用户补充的资源(我也要补充):

暂无补充资源
正在加载,请稍等...

点击查看所有31网友评论

 

(?) [公告]留口水、评论相关规则 | [活动]每日签到 轻松领取电驴经验

    小贴士:
  1. 类似“顶”、“沙发”之类没有营养的文字,对勤劳贡献的楼主来说是令人沮丧的反馈信息。
  2. 提问之前请再仔细看一遍楼主的说明,或许是您遗漏了。
  3. 勿催片。请相信驴友们对分享是富有激情的,如果确有更新版本,您一定能搜索到。
  4. 请勿到处挖坑绊人、招贴广告。既占空间让人厌烦,又没人会搭理,于人于己都无利。
  5. 如果您发现自己的评论不见了,请参考以上4条。