v

您的位置:VeryCD动漫电视动画

动漫资源事务区


《蓝精灵:圣诞颂》(The Smurfs: A Christmas Carol)[深影字幕组][中英双语字幕][640x352][DVDRip][RMVB]

  • 状态: 精华资源
  • 摘要:
    发行时间2011年
    语言英语
  • 时间: 2011/12/28 13:34:53 发布 | 2012/01/05 19:59:42 更新
  • 分类: 动漫  电视动画 

life_is_good

精华资源: 6571

全部资源: 7301

相关: 分享到新浪微博   转播到腾讯微博   分享到开心网   分享到人人   分享到QQ空间   订阅本资源RSS更新   美味书签  subtitle
该内容尚未提供权利证明,无法提供下载。
中文名蓝精灵:圣诞颂
英文名The Smurfs: A Christmas Carol
资源格式RMVB
版本[深影字幕组][中英双语字幕][640x352][DVDRip]
发行时间2011年
导演Troy Quane
地区美国
语言英语
简介

IPB Image

【首播时间】 2011年
【字幕制作】 中英双语字幕


【内容介绍】 (深影字幕组)

引用
深影论坛地址 http://nbachangsuoyuyan.5d6d.com
深影字幕组微博地址:http://weibo.com/syfansub
故事中,蓝爸爸和其他蓝精灵唱着圣诞颂歌串门,注意到只有厌厌的家没有装饰。他们上门打听出了什么事,厌厌说他讨厌圣诞节,砰地把门关上,还溅了聪聪一身雪。蓝爸爸回到实验室,希望能发明出让厌厌重新燃起失落的圣诞情绪的东西。

【STAFF】

导演:Troy Quane

【CAST】

杰克·安琪 Jack Angel ....Papa (voice)
弗莱德·阿米森 Fred Armisen ....Brainy (voice)
汉克·阿扎利亚 Hank Azaria ....Gargamel (voice)
Gary Basaraba ....Hefty (voice)
乔治·洛佩兹 George Lopez ....Grouchy (voice)
Melissa Sturm ....Smurfette (voice)
安东·尤金 Anton Yelchin ....Clumsy (voice)

【视频截图】

IPB Image

IPB Image

IPB Image

IPB Image

IPB Image

【编码参数】

代码
蓝精灵之圣诞颂歌.The.smurf.a_Christmas.carol.2011.DVD-RMVB.双语字幕-深影字幕组.rmvb
   General
      Complete name : 蓝精灵之圣诞颂歌.The.smurf.a_Christmas.carol.2011.DVD-RMVB.双语字幕-深影字幕组.rmvb
      Format : RealMedia
      File size : 89.5 MiB
      Duration : 22mn 36s
      Overall bit rate : 542 Kbps
   Video #1
      ID : 1
      Format : RealVideo 4
      Codec ID : RV40
      Codec ID/Info : Based on AVC (H.264), Real Player 9
      Duration : 22mn 36s
      Bit rate : 478 Kbps
      Width : 640 pixels
      Height : 352 pixels
      Display aspect ratio : 16:9
      Frame rate : 23.000 fps
      Bits/(Pixel*Frame) : 0.092
      Stream size : 77.2 MiB (86%)
   Audio #0
      ID : 0
      Format : Cooker
      Codec ID : cook
      Codec ID/Info : Based on G.722.1, Real Player 6
      Duration : 22mn 37s
      Bit rate : 64.1 Kbps
      Channel(s) : 2 channels
      Sampling rate : 44.1 KHz
      Resolution : 16 bits
      Stream size : 10.4 MiB (12%)

正在读取……

这里是其它用户补充的资源(我也要补充):

暂无补充资源
正在加载,请稍等...

点击查看所有11网友评论

 

(?) [公告]留口水、评论相关规则 | [活动]每日签到 轻松领取电驴经验

    小贴士:
  1. 类似“顶”、“沙发”之类没有营养的文字,对勤劳贡献的楼主来说是令人沮丧的反馈信息。
  2. 提问之前请再仔细看一遍楼主的说明,或许是您遗漏了。
  3. 勿催片。请相信驴友们对分享是富有激情的,如果确有更新版本,您一定能搜索到。
  4. 请勿到处挖坑绊人、招贴广告。既占空间让人厌烦,又没人会搭理,于人于己都无利。
  5. 如果您发现自己的评论不见了,请参考以上4条。