v

您的位置:VeryCD动漫剧场动画

动漫资源事务区


《约克丛林历险记》(Jock Of The Bushveld)[720x400][AVI][DVDRip]

  • 状态: 精华资源
  • 摘要:
    发行时间2011年
    语言英语
  • 时间: 2011/12/21 04:07:42 发布 | 2011/12/22 19:49:18 更新
  • 分类: 动漫  剧场动画 

life_is_good

精华资源: 6571

全部资源: 7301

相关: 分享到新浪微博   转播到腾讯微博   分享到开心网   分享到人人   分享到QQ空间   订阅本资源RSS更新   美味书签  subtitle
该内容尚未提供权利证明,无法提供下载。
中文名约克丛林历险记
英文名Jock Of The Bushveld
资源格式DVDRip
版本[720x400][AVI]
发行时间2011年
地区美国,南非
语言英语
简介

IPB Image

【首播时间】 2011年
【字幕制作】 暂无


【内容介绍】

影片讲述了南非家喻户晓的小狗英雄约克的历险经历。

【STAFF】

导演:邓肯·麦克尼尔 Duncan MacNeillie

【CAST】

布莱恩·亚当斯 Bryan Adams ....Jock (voice)
威廉·鲍德温 William Baldwin ....Boatman (voice)
Anthony Bishop ....George (voice)
Louisa Cerdan ....(voice)
Philina Cerdan ....(voice)
特德·丹森 Ted Danson ....Pezulu (voice)
Rose Emanuel ....Julien (voice)
Ava Flutie ....(voice)
Catherine Flutie ....(voice)
Kim Hart ....Little Puppy (voice)
Makenzie Hart ....Young Jock (voice)
Mallory Hart ....(voice)
罗伯特·胡布斯 Robert Hobbs ....Seedling (voice)
海伦·亨特 Helen Hunt ....Jess (voice)
Kira Karantonis ....(voice)
Jason Kennett ....Snarly (voice)
Theo Landey ....Fitz (voice)
Kristy MacNeillie
Tammy MacNeillie ....(voice)
Luna Malyon ....(voice)
De Pinna Michael ....Claude (voice)
Bongani Nxumalo ....Jim (voice)
曼迪·帕廷金 Mandy Patinkin ....Basil (voice)
Michael Richards ....Mr. Morris (voice)
Jamie Samuels ....(voice)
Sylvaine Strike ....Polly (voice)
唐纳德·萨瑟兰 Donald Sutherland ....Narrator / Sir Percy Fitzpatrick (voice)
Fenias Timbe ....(voice)
戴斯蒙·图图 Desmond Tutu ....Baba (voice)

【视频截图】

IPB Image

IPB Image

IPB Image

IPB Image

【编码参数】

代码
Jock Of The Bushveld 2011 DVDRip XviD AC3 - DiVERSiTY

Infomation

GENERAL:
Complete name                    : Jock Of The Bushveld 2011 DiVERSiTY.avi
Format                           : AVI
Format/Info                      : Audio Video Interleave
File size                        : 1 009 MiB
Duration                         : 1h 20mn
Overall bit rate                 : 1 762 Kbps
Encoder                          : usagi
Sample                           : yes
Source                           : DVD-9 thnx whoever made it
IMDb                             : http://www.imdb.com/title/tt1822239/

VIDEO
ID                               : 0
Format                           : MPEG-4 Visual
Format profile                   : Advanced Simple@L5
Format settings, BVOP            : 2
Format settings, QPel            : No
Format settings, GMC             : No warppoints
Format settings, Matrix          : Default (H.263)
Codec ID                         : XVID
Codec ID/Hint                    : XviD
Duration                         : 1h 20mn
Bit rate                         : 1 306 Kbps
Width                            : 720 pixels
Height                           : 400 pixels
Display aspect ratio             : 16:9
Frame rate                       : 25.000 fps
Color space                      : YUV
Chroma subsampling               : 4:2:0
Bit depth                        : 8 bits
Scan type                        : Progressive
Compression mode                 : Lossy
Bits/(Pixel*Frame)               : 0.181
Stream size                      : 748 MiB (74%)
Writing library                  : XviD 1.2.1 (UTC 2008-12-04)

AUDIO
ID                               : 1
Format                           : AC-3
Format/Info                      : Audio Coding 3
Mode extension                   : CM (complete main)
Codec ID                         : 2000
Duration                         : 1h 20mn
Bit rate mode                    : Constant
Bit rate                         : 448 Kbps
Channel(s)                       : 6 channels
Channel positions                : Front: L C R, Side: L R, LFE
Sampling rate                    : 48.0 KHz
Bit depth                        : 16 bits
Compression mode                 : Lossy
Stream size                      : 257 MiB (25%)
Alignment                        : Aligned on interleaves
Interleave, duration             : 64 ms (1.60 video frames)
Interleave, preload duration     : 192 ms
Title                            : VTS_01_1 T80 3_2ch 448Kbps DELAY 0ms_new

Plot
Animated-family adventure that tells the heart-warming, coming-of-age story of a man and his best-friend,
a lovable and fearless dog named, Jock.

Cast
Bryan Adams ... Jock (voice)
William Baldwin ... Boatman (voice)
Anthony Bishop ... George (voice)
Louisa Cerdan ... (voice)
Philina Cerdan ... (voice)
Ted Danson ... Pezulu (voice)
Rose Emanuel ... Julien (voice)
Ava Flutie ... (voice)

正在读取……

这里是其它用户补充的资源(我也要补充):

暂无补充资源
正在加载,请稍等...

点击查看所有7网友评论

 

(?) [公告]留口水、评论相关规则 | [活动]每日签到 轻松领取电驴经验

    小贴士:
  1. 类似“顶”、“沙发”之类没有营养的文字,对勤劳贡献的楼主来说是令人沮丧的反馈信息。
  2. 提问之前请再仔细看一遍楼主的说明,或许是您遗漏了。
  3. 勿催片。请相信驴友们对分享是富有激情的,如果确有更新版本,您一定能搜索到。
  4. 请勿到处挖坑绊人、招贴广告。既占空间让人厌烦,又没人会搭理,于人于己都无利。
  5. 如果您发现自己的评论不见了,请参考以上4条。