v

您的位置:VeryCD动漫剧场动画

动漫资源事务区


《最小的天使》(The Littlest Angel)[BBnRG][AVI][BDRip]

  • 状态: 精华资源
  • 摘要:
    发行时间2011年
    语言英语
  • 时间: 2011/12/18 14:04:17 发布 | 2011/12/22 19:51:05 更新
  • 分类: 动漫  剧场动画 

life_is_good

精华资源: 6571

全部资源: 7301

相关: 分享到新浪微博   转播到腾讯微博   分享到开心网   分享到人人   分享到QQ空间   订阅本资源RSS更新   美味书签  subtitle
该内容尚未提供权利证明,无法提供下载。
中文名最小的天使
英文名The Littlest Angel
资源格式BDRip
版本[BBnRG][AVI]
发行时间2011年
导演Dave Kim
地区美国
语言英语
简介

IPB Image

【首播时间】 2011年
【字幕制作】 暂无


【内容介绍】

引用
感谢压制者 Encoder: FridayToker。使用DNL版重编码。
基于畅销儿童书改编,《最小的天使》讲述了一个小男孩来到天堂的故事。他想家又孤单,和他的小狗Halo回到地球,帮小小上帝获取一件最无私最珍贵的礼物。(文/life_is_good@YDY)

Based on the fifteenth best-selling children's book of all time, The Littlest Angel tells the story of a young boy who arrives in heaven before his time. Home-sick and lonely, he will travel back to earth, with his friendly pup Halo, to retrieve a most selfless and precious gift for The Baby Jesus. Experience the love, laughter and magic of one of the most popular children's stories of all time. From the classic book by Charles Tazewell comes the CGI animated film, The Littlest Angel.

【STAFF】

导演:Dave Kim

【CAST】

Ed Kelly ... Halo / Mr. Creepedeep
Nina Kircher ... Mrs. Creepedeep
Clarity Patton ... Angel Eve
Ron Perlman ... God
Caleb Wolfe ... Littlest Angel

【视频截图】

IPB Image

IPB Image

IPB Image

【编码参数】

代码
Format : AVI
Format/Info : Audio Video Interleave
File size : 1.37 GiB
Duration : 1h 23mn
Overall bit rate : 2 352 Kbps

Video

ID : 0
Format : MPEG-4 Visual
Format profile : Advanced Simple@L5
Format settings, BVOP : 2
Format settings, QPel : No
Format settings, GMC : No warppoints
Format settings, Matrix : Default (H.263)
Codec ID : XVID
Codec ID/Hint : XviD
Duration : 1h 23mn
Bit rate : 1 960 Kbps
Width : 1 280 pixels
Height : 720 pixels
Display aspect ratio : 16:9
Frame rate : 23.976 fps
Color space : YUV
Chroma subsampling : 4:2:0
Bit depth : 8 bits
Scan type : Progressive
Compression mode : Lossy
Bits/(Pixel*Frame) : 0.089
Stream size : 1.14 GiB (83%)
Writing library : XviD 1.2.1 (UTC 2008-12-04)

Audio

ID : 1
Format : AC-3
Format/Info : Audio Coding 3
Mode extension : CM (complete main)
Codec ID : 2000
Duration : 1h 23mn
Bit rate mode : Constant
Bit rate : 384 Kbps
Channel(s) : 6 channels
Channel positions : Front: L C R, Side: L R, LFE
Sampling rate : 48.0 KHz
Bit depth : 16 bits
Compression mode : Lossy
Stream size : 229 MiB (16%)
Alignment : Aligned on interleaves
Interleave, duration : 64 ms (1.53 video frames)
Interleave, preload duration : 192 ms

http://www.imdb.com/title/tt1869724/

Encoder: FridayToker :pimp:
Source(s): DNL (thanks)

Another fine release from BBnRG.

正在读取……

这里是其它用户补充的资源(我也要补充):

暂无补充资源
正在加载,请稍等...

点击查看所有9网友评论

 

(?) [公告]留口水、评论相关规则 | [活动]每日签到 轻松领取电驴经验

    小贴士:
  1. 类似“顶”、“沙发”之类没有营养的文字,对勤劳贡献的楼主来说是令人沮丧的反馈信息。
  2. 提问之前请再仔细看一遍楼主的说明,或许是您遗漏了。
  3. 勿催片。请相信驴友们对分享是富有激情的,如果确有更新版本,您一定能搜索到。
  4. 请勿到处挖坑绊人、招贴广告。既占空间让人厌烦,又没人会搭理,于人于己都无利。
  5. 如果您发现自己的评论不见了,请参考以上4条。