v

您的位置:VeryCD综艺晚会典礼

综艺资源事务区


《2011年度维多利亚的秘密内衣秀》(The Victoria's Secret Fashion Show 2011)全一集/CtrlHD/英语中英字幕[1080i]

  • 状态: 精华资源
  • 摘要:
    发行时间2011年11月29日
    地区美国
    语言英语
  • 时间: 2011/12/07 02:12:32 发布 | 2011/12/08 09:19:16 更新
  • 分类: 综艺  晚会典礼 

life_is_good

精华资源: 6571

全部资源: 7301

相关: 分享到新浪微博   转播到腾讯微博   分享到开心网   分享到人人   分享到QQ空间   订阅本资源RSS更新   美味书签  subtitle
该内容尚未提供权利证明,无法提供下载。
中文名2011年度维多利亚的秘密内衣秀
英文名The Victoria's Secret Fashion Show 2011
版本全一集/CtrlHD/英语中英字幕[1080i]
发行时间2011年11月29日
电视台CBS
地区美国
语言英语
简介

IPB Image

【类型】: 晚会
【影片长度】: 42分钟
【集数】:全1集
【字幕】: 外挂中英字幕 制作 by yyets, 整理 by neco@CHDBits
【服务器】: 随机
【分享时间】:全天

【内容介绍】:

引用
36MBit高码率版。
一年一度的维多利亚的秘密 (Victoria's Secret) 性感内衣大秀将在2011年11月09日盛大开演。秀还没上,将在秀上展示的内衣设计手稿图先曝光了。同时,还确定了去年因怀孕没有走秀的米兰达·可儿 (Miranda Kerr) 、杜晨·科洛斯 (Doutzen Kroes) 都将回归,与Alessandra Ambrosio, Adriana Lima,Candice Swanepoel,Erin Heatherton,,Lily Aldridge和Lindsay Ellingson等麻豆一起T台比拼。维多利亚的秘密性感内衣大秀完整剪辑版将于11月29日,由CBS电视台播出。

【视频截图】:

IPB Image

IPB Image

IPB Image

IPB Image

IPB Image

IPB Image

IPB Image

IPB Image

【供源截图】:

IPB Image

【编码参数】:

引用
Format : MPEG-TS
File size : 10.8 GiB
Duration : 42mn 6s
Overall bit rate : 36.7 Mbps
Video #65
ID : 65 (0x41)
Menu ID : 1 (0x1)
Format : MPEG Video
Format version : Version 2
Format profile : 4:2:2@High
Format settings, BVOP : Yes
Format settings, Matrix : Custom
Format settings, GOP : M=3, N=15
Codec ID : 2
Duration : 42mn 6s
Bit rate mode : Variable
Bit rate : 35.5 Mbps
Width : 1 920 pixels
Height : 1 080 pixels
Display aspect ratio : 16:9
Frame rate : 29.970 fps
Standard : Component
Color space : YUV
Chroma subsampling : 4:2:2
Bit depth : 8 bits
Scan type : Interlaced
Scan order : Top Field First
Compression mode : Lossy
Bits/(Pixel*Frame) : 0.572
Stream size : 10.2 GiB (94%)
Audio #68
ID : 68 (0x44)
Menu ID : 1 (0x1)
Format : MPEG Audio
Format version : Version 1
Format profile : Layer 2
Mode : Joint stereo
Codec ID : 3
Duration : 42mn 6s
Bit rate mode : Constant
Bit rate : 256 Kbps
Channel(s) : 2 channels
Sampling rate : 48.0 KHz
Compression mode : Lossy
Stream size : 77.1 MiB (1%)
Language : English
引用
=====本字幕由以下成员荣誉制作 感谢他们的无私奉献======
翻译:彩色蜡笔 馒头 吝啬 傅莉迪 夏沫 断电
时间轴:子衿 Remember
后期:瓜瓜
校对&总监:馒头

正在读取……

这里是其它用户补充的资源(我也要补充):

暂无补充资源
正在加载,请稍等...

点击查看所有46网友评论

 

(?) [公告]留口水、评论相关规则 | [活动]每日签到 轻松领取电驴经验

    小贴士:
  1. 类似“顶”、“沙发”之类没有营养的文字,对勤劳贡献的楼主来说是令人沮丧的反馈信息。
  2. 提问之前请再仔细看一遍楼主的说明,或许是您遗漏了。
  3. 勿催片。请相信驴友们对分享是富有激情的,如果确有更新版本,您一定能搜索到。
  4. 请勿到处挖坑绊人、招贴广告。既占空间让人厌烦,又没人会搭理,于人于己都无利。
  5. 如果您发现自己的评论不见了,请参考以上4条。