v

您的位置:VeryCD音乐古典音乐

音乐资源事务区


Leopold Mozart, Amadeus Mozart -《莫扎特:玩具交响曲》(Symphonie des Jouets (Toy Symphony))Jean Francois Paillard & Orchestre de Chambre (ERATO)[FLAC]

  • 状态: 精华资源
  • 摘要:
    古典类型交响曲
    发行时间1984年
  • 时间: 2011/12/01 15:19:05 发布 | 2011/12/02 12:07:36 更新
  • 分类: 音乐  古典音乐 

mtyylx

精华资源: 2

全部资源: 2

相关: 分享到新浪微博   转播到腾讯微博   分享到开心网   分享到人人   分享到QQ空间   订阅本资源RSS更新   美味书签  subtitle
该内容尚未提供权利证明,无法提供下载。
专辑英文名Symphonie des Jouets (Toy Symphony)
专辑中文名莫扎特:玩具交响曲
别名Toy Symphony
古典类型交响曲
资源格式FLAC
版本Jean Francois Paillard & Orchestre de Chambre (ERATO)
发行时间1984年
地区日本
语言法语
简介

IPB Image

专辑介绍:

发布一张Leopold Mozart的玩具交响曲,收藏已久,但网上一直没有相关资源,于是自己抓轨传上来分享给大家。

Leopold Mozart是乐圣Wolfgang Amadeus Mozart的父亲,大家可能在《莫扎特传》这部经典的电影中看到过这一银幕形象。他的玩具交响曲非常有名,并在很长一段时间被认为是海顿所做,后来才被确定属于Leopold的作品。这张CD还收有W.A. Mozart的一个音乐小品“a musical joke”。整张CD都非常好听。

从小就开始听这张专辑,也算是我古典音乐的启蒙音乐了,一直极其喜爱,特此与大家分享。


FLAC整轨用EAC抓轨,包含完整的CUE文件和LOG文件,并附带专辑封面、封底、小册子、光盘的照片。独此一份。

IPB Image
IPB Image
IPB Image


引用
Exact Audio Copy V1.0 beta 3 from 29. August 2011

EAC extraction logfile from 1. December 2011, 13:59

Orchestre de Chambre / L. Mozart: Symphonie des Jouets; Mozart: Concerto pour trompette

Used drive : MATSHITADVD-RAM UJ890AS Adapter: 1 ID: 0

Read mode : Secure
Utilize accurate stream : Yes
Defeat audio cache : No
Make use of C2 pointers : No

Read offset correction : 102
Overread into Lead-In and Lead-Out : No
Fill up missing offset samples with silence : Yes
Delete leading and trailing silent blocks : No
Null samples used in CRC calculations : Yes
Used interface : Native Win32 interface for Win NT & 2000

Used output format : User Defined Encoder
Selected bitrate : 768 kBit/s
Quality : High
Add ID3 tag : No
Command line compressor : C:\Program Files\Exact Audio Copy\FLAC\FLAC.EXE
Additional command line options : -6 -V -T "ARTIST=%artist%" -T "TITLE=%title%" -T "ALBUM=%albumtitle%" -T "DATE=%year%" -T "TRACKNUMBER=%tracknr%" -T "GENRE=%genre%" -T "COMMENT=%comment%" -T "BAND=%albuminterpret%" -T "ALBUMARTIST=%albuminterpret%" -T "COMPOSER=%composer%" %haslyrics%--tag-from-file=LYRICS="%lyricsfile%"%haslyrics% -T "DISCNUMBER=%cdnumber%" -T "TOTALDISCS=%totalcds%" -T "TOTALTRACKS=%numtracks%" %hascover%--picture="%coverfile%"%hascover% %source% -o %dest%


TOC of the extracted CD

Track | Start | Length | Start sector | End sector
---------------------------------------------------------
1 | 0:00.37 | 4:35.68 | 37 | 20729
2 | 4:36.30 | 3:41.32 | 20730 | 37336
3 | 8:17.62 | 1:28.50 | 37337 | 43986
4 | 9:46.37 | 8:55.00 | 43987 | 84111
5 | 18:41.37 | 6:07.53 | 84112 | 111689
6 | 24:49.15 | 4:04.47 | 111690 | 130036
7 | 28:53.62 | 5:55.08 | 130037 | 156669
8 | 34:48.70 | 7:01.67 | 156670 | 188311
9 | 41:50.62 | 4:15.18 | 188312 | 207454


Range status and errors

Selected range

Filename C:\Users\Kang Yuan\Desktop\Orchestre de Chambre - L. Mozart- Symphonie des Jouets; Mozart- Concerto pour trompette.wav

Peak level 100.0 %
Extraction speed 3.0 X
Range quality 100.0 %
Test CRC 1A9C5107
Copy CRC 1A9C5107
Copy OK

No errors occurred


AccurateRip summary

Track 1 not present in database
Track 2 not present in database
Track 3 not present in database
Track 4 not present in database
Track 5 not present in database
Track 6 not present in database
Track 7 not present in database
Track 8 not present in database
Track 9 not present in database

None of the tracks are present in the AccurateRip database

End of status report

==== Log checksum 55188827DDC0824E41121D1D15876D382A0F56AB966CDD739DB9104565F3C1D5 ====

IPB Image

传到115上了,着急的童鞋这样可能会快些了
**********************************
115下载 http://115.com/file/e6a8moe2#
**********************************
速度可能会快一些,下完了麻烦放到电驴的共享文件夹里,谢谢...



专辑曲目

Leopold Mozart

symphonie des jouets
en do majeur
kindersinfonie, c-dur
toy symphony in c major
1. Allegro
2. Menuetto
3. Finale - Allegro

concerto en re majeur
pour trompette, cors, cordes et clavecin
Konzert D-dur fur Solotrompete,
Horner, Streicher und Cembalo
Concerto in D-major for trumpet, horns, strings and harpsichord
4. Adagio
5. Allegro moderato

-------------------------------------------------

Wolfgang Amadeus Mozart

une plaisanterie musicale kv 522
Ein musikalischer spab
A musical joke
6. Allegro
7. Menuetto
8. Adagio cantabile
9. Presto

正在读取……

这里是其它用户补充的资源(我也要补充):

暂无补充资源
正在加载,请稍等...

点击查看所有57网友评论

 

(?) [公告]留口水、评论相关规则 | [活动]每日签到 轻松领取电驴经验

    小贴士:
  1. 类似“顶”、“沙发”之类没有营养的文字,对勤劳贡献的楼主来说是令人沮丧的反馈信息。
  2. 提问之前请再仔细看一遍楼主的说明,或许是您遗漏了。
  3. 勿催片。请相信驴友们对分享是富有激情的,如果确有更新版本,您一定能搜索到。
  4. 请勿到处挖坑绊人、招贴广告。既占空间让人厌烦,又没人会搭理,于人于己都无利。
  5. 如果您发现自己的评论不见了,请参考以上4条。