v

您的位置:VeryCD音乐演唱会

音乐资源事务区


Serj Tankian -《Elect the Dead Symphony》[DVDRip]

  • 状态: 精华资源
  • 摘要:
    发行时间2010年
    语言英语
  • 时间: 2011/11/30 01:22:20 发布 | 2011/12/10 12:39:51 更新
  • 分类: 音乐  演唱会 

MTina

精华资源: 3862

全部资源: 3863

相关: 分享到新浪微博   转播到腾讯微博   分享到开心网   分享到人人   分享到QQ空间   订阅本资源RSS更新   美味书签  subtitle
该内容尚未提供权利证明,无法提供下载。
专辑中文名Elect the Dead Symphony
歌手Serj Tankian
资源格式DVDRip
发行时间2010年
地区美国
语言英语
简介

IPB Image

内容介绍:

Serj Tankian在新西兰奥克兰市政厅与奥克兰爱乐乐团合作的交响乐现场

  Serj Tankian是一个美籍亚美尼亚裔的创作歌手,作曲家,多种乐器演奏者,唱片制作人,诗人以及政治活动家. 最被人熟知的角色就是担任拿过格莱美奖的摇滚乐队System of a Down的主唱,作曲,键盘以及偶尔在现场中担任旋律吉他手.在他的音乐生涯中,Tankian在System of a Down乐队中发行了五张CD,一张同Arto Tun?boyac?yan(Serart), 还有两张个人专辑Elect the Dead和Imperfect Harmonies, 以及一张与奥克兰爱乐乐团合作的交响乐现场 Elect the Dead Symphony. 在2002年, Tankian 和Rage Against the Machine/Audioslave的吉他手Tom Morello共同创建了非营利性政治活动组织,Axis of Justice. Tankian还创办了音乐厂牌 Serjical Strike Records. Tankian 被评为Hit Parader有史以来Top 100金属歌手第26位. 早年Tankian 在黎巴嫩贝鲁特出生于1967年8月21日,8岁时随家移民到加利福尼亚洛杉矶市.青少年时期的Tankian就读于一所美国亚美尼亚裔学校"The Rose & Alex Pilibos School",同时就读于这所学校的还有之后System of a Down乐队的Daron Malakian和Shavo Odadjian. 成绩不错的Tankian之后又就读于加利福尼亚州立大学,在这里,Tankian第一次开始写起了歌,玩起了乐器.

  2005年,当红金属乐队System Of A Down连续发行的两张录音室专辑《Mezmerize》和《Hypnotize》(均由Rick Rubin制作)都获得了当年Billboard 200专辑榜的冠军,此后,System Of A Down开始进入了休整期。赶在乐队发片的空挡期,主唱Serj Tankian适时地发行了他的首张个人专辑《Elect The Dead》。在全美上市首周,本张专辑以近6万9千张的单周销量成绩排在本周Billboard 200专辑榜的第四位。
  这张《Elect The Dead》是通过Serj Tankian在Warner公司旗下设立的个人厂牌Serjical Strike发行的。在System Of A Down乐队中时,Serj Tankian主要负责歌词的创作,而主要的作曲任务一般都是由吉他手Daron Malakian来完成。但在自己的这张处子作当中,全部12首歌曲的词曲创作全由Serj Tankian一人包办。
  虽然还是那个我们非常熟悉的声音,但《Elect The Dead》带给听众的感觉跟System Of A Down乐队的专辑还是截然不同的。如果说System Of A Down乐队的作品更为硬朗的话,那么Serj Tankian这张个人专辑就显得相对更为细腻、更为多样化。
  由于身边没有了老搭档Daron Malakian的协助,Serj Tankian在这张个人专辑中增加了钢琴的运用,出彩的吉他段落相对System Of A Down少了一些。同名单曲《Elect The Dead》就是一首纯钢琴伴奏的慢歌,而在《Sky Is Over》当中,钢琴也是主角。《The Unthinking Majority》中间与《Money》结尾部分那种连续的嘶吼还有一点System Of A Down的气势,除此之外,后面大部分单曲都与System Of A Down乐队走的是不同的路子。《Baby》走的是半柔情华的路线;《Honking Antelope》以弦乐打底、以钢琴为主奏;《Lie Lie Lie》则融入了些许西亚民族音乐的元素。
  可能会有System Of A Down的歌迷认为这张《Elect the Dead》不够硬朗,但单兵作战的Serj Tankian还是很好的展现出了他相对更为细腻的一面。

http://en.wikipedia.org/wiki/Elect_the_Dead_Symphony

  On March 16th, 2009, Serj Tankian, a Grammy Award winner and one of rock's most unconventional frontmen, took the stage at the majestic Auckland Town Hall in New Zealand with the Auckland Philharmonia Orchestra to perform a very special orchestral interpretation of his critically acclaimed debut solo album Elect the Dead. The dynamic one-off performance was recorded and filmed in HD by six cameras, and the dramatic result has been captured in Elect the Dead Symphony. With the Auckland Philharmonia Orchestra at his side, Tankian's epic songs and operatic vocals take on a whole new sense of grandeur when performed by a full 70-piece orchestra, while the movie's sweeping edits showcase the drama of the concert. This unique meshing of two very different musical worlds was a vision Tankian has long wanted to make a reality. What sets Elect The Dead Symphony apart from other successful pairings between rock artists and orchestras is that Tankian specifically rearranged his songs to be performed with only orchestral instruments.

代码
General
Complete name                    : Serj.Tankian.Elect.the.Dead.Symphony.(2010).DVDRip.AC3.XviD-deadbodyman.avi
Format                           : AVI
Format/Info                      : Audio Video Interleave
File size                        : 1.46 GiB
Duration                         : 1h 3mn
Overall bit rate                 : 3 308 Kbps
Writing application              : VirtualDubMod 1.5.4.1 (build 2178/release)
Writing library                  : VirtualDubMod build 2178/release

Video
ID                               : 0
Format                           : MPEG-4 Visual
Format profile                   : AdvancedSimple@L5
Format settings, BVOP            : Yes
Format settings, QPel            : No
Format settings, GMC             : No warppoints
Format settings, Matrix          : Custom
Codec ID                         : XVID
Codec ID/Hint                    : XviD
Duration                         : 1h 3mn
Bit rate                         : 2 852 Kbps
Width                            : 720 pixels
Height                           : 416 pixels
Display aspect ratio             : 16:9
Frame rate                       : 29.970 fps
Resolution                       : 24 bits
Colorimetry                      : 4:2:0
Scan type                        : Progressive
Bits/(Pixel*Frame)               : 0.318
Stream size                      : 1.26 GiB (86%)
Writing library                  : XviD 1.2.1 (UTC 2008-12-04)

Audio
ID                               : 1
Format                           : AC-3
Format/Info                      : Audio Coding 3
Codec ID                         : 2000
Duration                         : 1h 3mn
Bit rate mode                    : Constant
Bit rate                         : 448 Kbps
Channel(s)                       : 6 channels
Channel positions                : Front: L C R, Surround: L R, LFE
Sampling rate                    : 48.0 KHz
Stream size                      : 202 MiB (14%)
Alignment                        : Split accross interleaves
Interleave, duration             : 96 ms (2.88 video frames)
Interleave, preload duration     : 96 ms


IPB Image

IPB Image

IPB Image

IPB Image
该内容尚未提供权利证明,无法提供下载。
该内容尚未提供权利证明,无法提供下载。


专辑曲目

01. "Feed Us" 7:29
02. "Blue" 3:15
03. "Sky Is Over" 3:09
04. "Lie Lie Lie" 3:58
05. "Money" 3:29
06. "Baby" 3:41
07. "Gate 21" 2:49
08. "The Charade" 4:30
09. "Honking Antelope" 3:49
10. "Saving Us" 4:55
11. "Elect the Dead" 3:08
12. "Falling Stars" 3:24
13. "Beethoven's Cunt" 3:29
14. "Empty Walls" 3:57
15. "The Charade" (studio version; DVD only during credits) 3:33

正在读取……

这里是其它用户补充的资源(我也要补充):

暂无补充资源
正在加载,请稍等...

点击查看所有12网友评论

 

(?) [公告]留口水、评论相关规则 | [活动]每日签到 轻松领取电驴经验

    小贴士:
  1. 类似“顶”、“沙发”之类没有营养的文字,对勤劳贡献的楼主来说是令人沮丧的反馈信息。
  2. 提问之前请再仔细看一遍楼主的说明,或许是您遗漏了。
  3. 勿催片。请相信驴友们对分享是富有激情的,如果确有更新版本,您一定能搜索到。
  4. 请勿到处挖坑绊人、招贴广告。既占空间让人厌烦,又没人会搭理,于人于己都无利。
  5. 如果您发现自己的评论不见了,请参考以上4条。