v

您的位置:VeryCD动漫电视动画

动漫资源事务区


《蓝精灵:圣诞颂》(The Smurfs: A Christmas Carol)[入围奥斯卡动画短片候选作品][DVDRip]

  • 状态: 精华资源
  • 摘要:
    发行时间2011年12月2日
    语言英语
  • 时间: 2011/11/26 16:49:40 发布 | 2011/11/28 13:03:05 更新
  • 分类: 动漫  电视动画 

xslidian

精华资源: 21

全部资源: 23

相关: 分享到新浪微博   转播到腾讯微博   分享到开心网   分享到人人   分享到QQ空间   订阅本资源RSS更新   美味书签  subtitle
该内容尚未提供权利证明,无法提供下载。
中文名蓝精灵:圣诞颂
英文名The Smurfs: A Christmas Carol
资源格式DVDRip
版本[入围奥斯卡动画短片候选作品]
发行时间2011年12月2日
导演Troy Quane
地区美国
语言英语
简介

IPB Image

【发行时间】2011年12月2日
【字幕情况】暂无字幕


【内容介绍】
In the story, as Papa Smurf and some other Smurfs go through the village singing Christmas carols, they notice that Grouchy's house is the only Smurf house that hasn't been decorated. They go to visit Grouchy to find out what's wrong with him, and he tells them that he hates Christmas, slamming the door in their faces (and dumping a pile of snow on Brainy). Papa Smurf goes to his laboratory to create something that will hopefully help Grouchy regain the Christmas spirit that he seems to have lost.
故事中,蓝爸爸和其他蓝精灵唱着圣诞颂歌串门,注意到只有厌厌的家没有装饰。他们上门打听出了什么事,厌厌说他讨厌圣诞节,砰地把门关上,还溅了聪聪一身雪。蓝爸爸回到实验室,希望能发明出让厌厌重新燃起失落的圣诞情绪的东西。

【相关链接】
新闻预告:http://collider.com/raja-gosnell-jordan-kerner-interview-smurfs-smurfs-sequel/96414/
光盘预售(2日发货):http://www.amazon.com/dp/B003Y5H5AQ

【文件参数及截图预览】

代码
General
Complete name                    : D:\seeding\playxd-tsacc\The.Smurfs.A.Christmas.Carol.2011.DVDRip.XviD-playXD.avi
Format                           : AVI
Format/Info                      : Audio Video Interleave
File size                        : 352 MiB
Duration                         : 22mn 36s
Overall bit rate                 : 2 175 Kbps

Video
ID                               : 0
Format                           : MPEG-4 Visual
Format profile                   : Simple@L3
Format settings, BVOP            : No
Format settings, QPel            : No
Format settings, GMC             : No warppoints
Format settings, Matrix          : Default (H.263)
Codec ID                         : XVID
Codec ID/Hint                    : XviD
Duration                         : 22mn 36s
Bit rate                         : 2 034 Kbps
Width                            : 640 pixels
Height                           : 352 pixels
Display aspect ratio             : 16:9
Frame rate                       : 23.976 fps
Color space                      : YUV
Chroma subsampling               : 4:2:0
Bit depth                        : 8 bits
Scan type                        : Progressive
Compression mode                 : Lossy
Bits/(Pixel*Frame)               : 0.377
Stream size                      : 329 MiB (94%)
Writing library                  : XviD 1.1.2 (UTC 2006-11-01)

Audio
ID                               : 1
Format                           : MPEG Audio
Format version                   : Version 1
Format profile                   : Layer 3
Mode                             : Joint stereo
Mode extension                   : MS Stereo
Codec ID                         : 55
Codec ID/Hint                    : MP3
Duration                         : 22mn 36s
Bit rate mode                    : Constant
Bit rate                         : 128 Kbps
Channel(s)                       : 2 channels
Sampling rate                    : 48.0 KHz
Compression mode                 : Lossy
Stream size                      : 20.7 MiB (6%)
Alignment                        : Split accross interleaves
Interleave, duration             : 24 ms (0.58 video frame)
Writing library                  : LAME3.98

IPB Image

正在读取……

这里是其它用户补充的资源(我也要补充):

暂无补充资源
正在加载,请稍等...

点击查看所有10网友评论

 

(?) [公告]留口水、评论相关规则 | [活动]每日签到 轻松领取电驴经验

    小贴士:
  1. 类似“顶”、“沙发”之类没有营养的文字,对勤劳贡献的楼主来说是令人沮丧的反馈信息。
  2. 提问之前请再仔细看一遍楼主的说明,或许是您遗漏了。
  3. 勿催片。请相信驴友们对分享是富有激情的,如果确有更新版本,您一定能搜索到。
  4. 请勿到处挖坑绊人、招贴广告。既占空间让人厌烦,又没人会搭理,于人于己都无利。
  5. 如果您发现自己的评论不见了,请参考以上4条。