v

您的位置:VeryCD动漫电视动画

动漫资源事务区


《冰河世纪:猛犸象的圣诞节》(Ice Age: A Mammoth Christmas)[感恩节特别短片][720P]

  • 状态: 精华资源
  • 摘要:
    发行时间2011年11月24日
    语言英语
  • 时间: 2011/11/25 20:04:46 发布 | 2011/11/26 13:08:40 更新
  • 分类: 动漫  电视动画 

xslidian

精华资源: 21

全部资源: 23

相关: 分享到新浪微博   转播到腾讯微博   分享到开心网   分享到人人   分享到QQ空间   订阅本资源RSS更新   美味书签  subtitle
该内容尚未提供权利证明,无法提供下载。
中文名冰河世纪:猛犸象的圣诞节
英文名Ice Age: A Mammoth Christmas
资源格式720P
版本[感恩节特别短片]
发行时间2011年11月24日
导演Karen Disher
地区美国
语言英语
简介

IPB Image

【首播时间】2011年11月24日(感恩节)
【发行时间】2011年11月26日
【字幕情况】暂无字幕


【内容介绍】
America’s favorite arctic herd is busy decorating for the holiday season. In his rush to help, Sid (John Leguizamo) destroys Manny’s (Ray Romano) favorite decorations. Manny is so upset he convinces Sid he is now on Santa’s naughty list. Sid, Crash (Seann William Scott), Eddie (Josh Peck) and Peaches (Ciara Bravo) take off for the North Pole to plead their case to Santa (Billy Gardell). Meanwhile, Manny, Ellie (Queen Latifah) and Diego (Denis Leary), worry over Peaches’ safety and race to find her. Back at the North Pole, Sid and his crew accidentally destroy Santa’s Workshop on Christmas Eve, and it’s up to these newfound friends to orchestrate a Christmas miracle. The special, directed by Karen Disher, also features the voice talent of Chris Wedge, T.J. Miller and Judah Friedlander.
全美最受欢迎的极寒动物忙于假日装饰,在匆匆帮忙之际,Sid 毁掉了 Manny 最喜爱的装饰品。Manny 难过地告诉 Sid 他已经被列入圣诞老人的淘气鬼名单了。Sid、Crash、Eddie 以及 Peaches 前往北极向圣诞老人道歉,与此同时,Manny、Ellie 和 Diego 担心 Peaches 的安危,竞相寻找她。而在北极的 Sid 等人在圣诞前夜不慎毁掉了圣诞老人的工作室,这些新朋友能创造圣诞奇迹吗?

【相关链接】
电视台官网:http://www.fox.com/schedule/
新闻预告:http://www.fox43.com/news/wpmt-ice-age-a-mammoth-christmas-special-this-thanksgiving-2011-on-fox43-20111117,0,1164676.story
蓝光预售(26日发货):http://www.amazon.com/dp/B005QODEDU

【文件参数及截图预览】

代码
General
Unique ID                        : 323052572762776384791143325988759468852 (0xF309A98FBCE8E9F9BC450C5BF512FB34)
Complete name                    : D:\seeding\dimension-iaamc-720p\Ice.Age-A.Mammoth.Christmas.720p.HDTV.X264-DIMENSION.mkv
Format                           : Matroska
File size                        : 635 MiB
Duration                         : 21mn 28s
Overall bit rate                 : 4 131 Kbps
Encoded date                     : UTC 2011-11-24 22:51:58
Writing application              : mkvmerge v3.0.0 ('Hang up your Hang-Ups') built on Apr 19 2010 11:58:49
Writing library                  : libebml v0.7.7 + libmatroska v0.8.1

Video
ID                               : 1
Format                           : AVC
Format/Info                      : Advanced Video Codec
Format profile                   : High@L4.1
Format settings, CABAC           : Yes
Format settings, ReFrames        : 9 frames
Codec ID                         : V_MPEG4/ISO/AVC
Duration                         : 21mn 28s
Bit rate                         : 3 601 Kbps
Width                            : 1 280 pixels
Height                           : 720 pixels
Display aspect ratio             : 16:9
Frame rate                       : 23.976 fps
Color space                      : YUV
Chroma subsampling               : 4:2:0
Bit depth                        : 8 bits
Scan type                        : Progressive
Bits/(Pixel*Frame)               : 0.163
Stream size                      : 553 MiB (87%)
Writing library                  : x264 core 119 r2106 07efeb4
Encoding settings                : cabac=1 / ref=9 / deblock=1:2:2 / analyse=0x3:0x133 / me=umh / subme=9 / psy=1 / psy_rd=0.40:0.00 / mixed_ref=1 / me_range=28 / chroma_me=1 / trellis=2 / 8x8dct=1 / cqm=0 / deadzone=21,11 / fast_pskip=0 / chroma_qp_offset=-2 / threads=6 / sliced_threads=0 / nr=0 / decimate=1 / interlaced=0 / bluray_compat=0 / constrained_intra=0 / bframes=5 / b_pyramid=2 / b_adapt=2 / b_bias=0 / direct=3 / weightb=1 / open_gop=0 / weightp=2 / keyint=250 / keyint_min=23 / scenecut=40 / intra_refresh=0 / rc_lookahead=60 / rc=crf / mbtree=1 / crf=18.0 / qcomp=0.60 / qpmin=0 / qpmax=69 / qpstep=4 / ip_ratio=1.40 / aq=1:0.60
Language                         : English

Audio
ID                               : 2
Format                           : AC-3
Format/Info                      : Audio Coding 3
Mode extension                   : CM (complete main)
Codec ID                         : A_AC3
Duration                         : 21mn 28s
Bit rate mode                    : Constant
Bit rate                         : 448 Kbps
Channel(s)                       : 6 channels
Channel positions                : Front: L C R, Side: L R, LFE
Sampling rate                    : 48.0 KHz
Bit depth                        : 16 bits
Compression mode                 : Lossy
Stream size                      : 68.8 MiB (11%)

IPB Image
IPB Image

正在读取……

这里是其它用户补充的资源(我也要补充):

暂无补充资源
正在加载,请稍等...

点击查看所有19网友评论

 

(?) [公告]留口水、评论相关规则 | [活动]每日签到 轻松领取电驴经验

    小贴士:
  1. 类似“顶”、“沙发”之类没有营养的文字,对勤劳贡献的楼主来说是令人沮丧的反馈信息。
  2. 提问之前请再仔细看一遍楼主的说明,或许是您遗漏了。
  3. 勿催片。请相信驴友们对分享是富有激情的,如果确有更新版本,您一定能搜索到。
  4. 请勿到处挖坑绊人、招贴广告。既占空间让人厌烦,又没人会搭理,于人于己都无利。
  5. 如果您发现自己的评论不见了,请参考以上4条。