v

您的位置:VeryCD动漫电视动画

动漫资源事务区


《辛普森一家 第二十三季》(The Simpsons Season 23)[2011年9月新番][DIMENSION][英语配音][暂无字幕][更新第10集][720P]

  • 状态: 精华资源
  • 摘要:
    发行时间2011年9月25日
    语言英语
  • 时间: 2011/11/20 20:48:09 发布 | 2012/01/11 19:01:30 更新
  • 分类: 动漫  电视动画 

xslidian

精华资源: 21

全部资源: 23

相关: 分享到新浪微博   转播到腾讯微博   分享到开心网   分享到人人   分享到QQ空间   订阅本资源RSS更新   美味书签  subtitle
该内容尚未提供权利证明,无法提供下载。
中文名辛普森一家 第二十三季
英文名The Simpsons Season 23
资源格式720P
版本[2011年9月新番][DIMENSION][英语配音][暂无字幕][更新第10集]
发行时间2011年9月25日
导演Matt Groening
地区美国
语言英语
简介

IPB Image

【首播时间】2011年9月25日——2011年9月新番
【字幕情况】暂无字幕


【内容介绍】
《辛普森一家》是福克斯电视台迄今为止最成功的电视动画片。同时也是美国电视史上播放时间最长的动画片。其剧场版已于 2007年上映,亦取得票房及口碑的巨大成功。

《辛普森一家》最早是FOX喜剧小品《特蕾西-厄尔曼秀》(The Tracey Ullman Show)中的一系列动画小品。这部动画片主要描述了辛普森一家在Springfield的生活。辛普森家的家长Homer不是传统意义上的“居家男人 ”。他作为一家之主,努力想领导没大没小的家庭成员,可经常发生的情况是他才是那个被领导的。这个家庭里有爱,蓝头发的女家长Marge,麻烦大王儿子 Bart,优秀的出人意料的女儿Lisa,还有婴儿Maggie。这个家庭从来不会变老,但Springfield小镇的背景却在随着年代变化。无论情况多困窘,辛普森一家幸福的住在一起。

这部长盛不衰的动画片吸引了全世界最顶级的巨星前来客串配音,其中包括迈克尔-杰克逊、达斯汀-霍夫曼、保罗-麦卡特尼、滚石乐队、“披头士”乐队的其中三位成员、英国首相布莱尔、美国前总统克林顿、《哈利波特》作者罗琳、运动员姚明以及好莱坞传奇女星伊丽莎白泰勒等。

辛普森一家被许多评论家看作是有史以来最伟大的动画。时代杂志在2000年将之题名为20世纪最伟大的电视节目。它对于流行文化的影响至今无可比拟。

【剧集列表】
S23E01 The Falcon and the D'ohman
S23E02 Bart Stops to Smell the Roosevelts
S23E03 Treehouse of Horror XXII
S23E04 Replaceable You
S23E05 The Food Wife
S23E06 The Book Job
S23E07 The Man in the Blue Flannel Pants
S23E08 The Ten-Per-Cent Solution
S23E09 Holidays of Future Passed
S23E10 Politically Inept, With Homer Simpson
——连载中——

【官方网站】
http://www.thesimpsons.com/

【文件参数及截图预览】

代码
General
Unique ID                        : 176478848749005128987379721364295147212 (0x84C4970606272F332BE6F69E43FC5ECC)
Complete name                    : D:\doc\Documents\s\eMule\Incoming\The.Simpsons.S23E01.720p.HDTV.X264-DIMENSION.mkv
Format                           : Matroska
File size                        : 324 MiB
Duration                         : 21mn 49s
Overall bit rate                 : 2 077 Kbps
Encoded date                     : UTC 2011-09-25 21:36:38
Writing application              : mkvmerge v3.0.0 ('Hang up your Hang-Ups') built on Apr 19 2010 11:58:49
Writing library                  : libebml v0.7.7 + libmatroska v0.8.1

Video
ID                               : 1
Format                           : AVC
Format/Info                      : Advanced Video Codec
Format profile                   : High@L4.1
Format settings, CABAC           : Yes
Format settings, ReFrames        : 8 frames
Format settings, GOP             : M=1, N=15
Codec ID                         : V_MPEG4/ISO/AVC
Duration                         : 21mn 49s
Bit rate                         : 1 588 Kbps
Width                            : 1 280 pixels
Height                           : 720 pixels
Display aspect ratio             : 16:9
Frame rate                       : 23.976 fps
Color space                      : YUV
Chroma subsampling               : 4:2:0
Bit depth                        : 8 bits
Scan type                        : Progressive
Bits/(Pixel*Frame)               : 0.072
Stream size                      : 248 MiB (76%)
Writing library                  : x264 core 116 r2074 2641b9e
Encoding settings                : cabac=1 / ref=8 / deblock=1:2:2 / analyse=0x3:0x133 / me=umh / subme=9 / psy=1 / psy_rd=1.00:0.00 / mixed_ref=1 / me_range=24 / chroma_me=1 / trellis=2 / 8x8dct=1 / cqm=0 / deadzone=21,11 / fast_pskip=0 / chroma_qp_offset=-2 / threads=6 / sliced_threads=0 / nr=0 / decimate=1 / interlaced=0 / bluray_compat=0 / constrained_intra=0 / bframes=5 / b_pyramid=2 / b_adapt=2 / b_bias=0 / direct=3 / weightb=1 / open_gop=0 / weightp=2 / keyint=250 / keyint_min=23 / scenecut=40 / intra_refresh=0 / rc_lookahead=60 / rc=crf / mbtree=1 / crf=18.0 / qcomp=0.60 / qpmin=0 / qpmax=69 / qpstep=4 / ip_ratio=1.40 / aq=1:1.00
Language                         : English

Audio
ID                               : 2
Format                           : AC-3
Format/Info                      : Audio Coding 3
Mode extension                   : CM (complete main)
Codec ID                         : A_AC3
Duration                         : 21mn 49s
Bit rate mode                    : Constant
Bit rate                         : 448 Kbps
Channel(s)                       : 6 channels
Channel positions                : Front: L C R, Side: L R, LFE
Sampling rate                    : 48.0 KHz
Bit depth                        : 16 bits
Compression mode                 : Lossy
Stream size                      : 69.9 MiB (22%)

IPB Image

正在读取……

这里是其它用户补充的资源(我也要补充):

暂无补充资源
正在加载,请稍等...

点击查看所有17网友评论

 

(?) [公告]留口水、评论相关规则 | [活动]每日签到 轻松领取电驴经验

    小贴士:
  1. 类似“顶”、“沙发”之类没有营养的文字,对勤劳贡献的楼主来说是令人沮丧的反馈信息。
  2. 提问之前请再仔细看一遍楼主的说明,或许是您遗漏了。
  3. 勿催片。请相信驴友们对分享是富有激情的,如果确有更新版本,您一定能搜索到。
  4. 请勿到处挖坑绊人、招贴广告。既占空间让人厌烦,又没人会搭理,于人于己都无利。
  5. 如果您发现自己的评论不见了,请参考以上4条。