v

您的位置:VeryCD动漫电视动画

动漫资源事务区


《乐一通秀场》(The Looney Tunes Show)[2011年5月新番][ositv][英语配音][英文字幕][更新第一辑][DVDRip]

  • 状态: 精华资源
  • 摘要:
    发行时间2011年5月3日
    语言英语
  • 时间: 2011/11/20 19:49:21 发布 | 2011/11/21 14:26:27 更新
  • 分类: 动漫  电视动画 

xslidian

精华资源: 21

全部资源: 23

相关: 分享到新浪微博   转播到腾讯微博   分享到开心网   分享到人人   分享到QQ空间   订阅本资源RSS更新   美味书签  subtitle
该内容尚未提供权利证明,无法提供下载。
中文名乐一通秀场
英文名The Looney Tunes Show
别名华纳巨星总动员2011
资源格式DVDRip
版本[2011年5月新番][ositv][英语配音][英文字幕][更新第一辑]
发行时间2011年5月3日
地区美国
语言英语
简介

IPB Image

【首播时间】2011年5月3日——2011年5月新番
【字幕情况】英文字幕


【内容介绍】
《乐一通秀场》(The Looney Tunes Show)是基于华纳三十~六十年代《Looney Tunes》《Merrie Melodies》两档节目中角色创作的系列动画,于 2011 年 5 月 3 日在美国 Cartoon Network 频道群首播。随后还在9月3日在加拿大 Teletoon、10月31日在英国 boomerang 频道首播。

【剧集列表】
2011-09-27 S01V01 Best Friends / Members Only / Jailbird and Jailbunny / Fish and Visitors
——目前只发行一碟——
2011-12-06 S01V02 Monster Talent / Reunion / Casa de Calma / Devil Dog
2012-03-12 S01V03 The Foghorn Leghorn Story / Eligible Bachelors / Peel of Fortune / Double Date

【官方网站】
http://www.cartoonnetwork.com/tv_shows/looneytunesshow/

【文件参数及截图预览】

代码
General
Complete name                    : D:\seeding\looney\looney.tunes.101.dvdrip.xvid-ositv.avi
Format                           : AVI
Format/Info                      : Audio Video Interleave
File size                        : 175 MiB
Duration                         : 22mn 36s
Overall bit rate                 : 1 083 Kbps
Writing application              : VirtualDubMod 1.5.10.2 (build 2540/release)
Writing library                  : VirtualDubMod build 2540/release

Video
ID                               : 0
Format                           : MPEG-4 Visual
Format profile                   : Advanced Simple@L5
Format settings, BVOP            : 1
Format settings, QPel            : No
Format settings, GMC             : No warppoints
Format settings, Matrix          : Default (H.263)
Codec ID                         : XVID
Codec ID/Hint                    : XviD
Duration                         : 22mn 36s
Bit rate                         : 881 Kbps
Width                            : 624 pixels
Height                           : 352 pixels
Display aspect ratio             : 16:9
Frame rate                       : 23.976 fps
Color space                      : YUV
Chroma subsampling               : 4:2:0
Bit depth                        : 8 bits
Scan type                        : Progressive
Compression mode                 : Lossy
Bits/(Pixel*Frame)               : 0.167
Stream size                      : 142 MiB (81%)
Writing library                  : XviD 1.0.3 (UTC 2004-12-20)

Audio
ID                               : 1
Format                           : AC-3
Format/Info                      : Audio Coding 3
Format profile                   : Dolby Digital
Mode extension                   : CM (complete main)
Codec ID                         : 2000
Duration                         : 22mn 36s
Bit rate mode                    : Constant
Bit rate                         : 192 Kbps
Channel(s)                       : 2 channels
Channel positions                : Front: L R
Sampling rate                    : 48.0 KHz
Bit depth                        : 16 bits
Compression mode                 : Lossy
Stream size                      : 31.0 MiB (18%)
Alignment                        : Split accross interleaves
Interleave, duration             : 42 ms (1.00 video frame)
Interleave, preload duration     : 500 ms

IPB Image

正在读取……

这里是其它用户补充的资源(我也要补充):

暂无补充资源
正在加载,请稍等...

点击查看所有11网友评论

 

(?) [公告]留口水、评论相关规则 | [活动]每日签到 轻松领取电驴经验

    小贴士:
  1. 类似“顶”、“沙发”之类没有营养的文字,对勤劳贡献的楼主来说是令人沮丧的反馈信息。
  2. 提问之前请再仔细看一遍楼主的说明,或许是您遗漏了。
  3. 勿催片。请相信驴友们对分享是富有激情的,如果确有更新版本,您一定能搜索到。
  4. 请勿到处挖坑绊人、招贴广告。既占空间让人厌烦,又没人会搭理,于人于己都无利。
  5. 如果您发现自己的评论不见了,请参考以上4条。