v

您的位置:VeryCD音乐演唱会

音乐资源事务区


Michael Jackson -《Royal Concert 1996》[DVDISO]

  • 状态: 精华资源
  • 摘要:
    发行时间1996年
    语言英语
  • 时间: 2011/11/20 00:54:32 发布 | 2011/12/10 12:41:20 更新
  • 分类: 音乐  演唱会 

MTina

精华资源: 3862

全部资源: 3863

相关: 分享到新浪微博   转播到腾讯微博   分享到开心网   分享到人人   分享到QQ空间   订阅本资源RSS更新   美味书签  subtitle
该内容尚未提供权利证明,无法提供下载。
专辑中文名Royal Concert 1996
版本[DVDISO]
发行时间1996年
地区美国
语言英语
简介

IPB Image

内容介绍:

  Michael Jackson Brunei 1996 Royal Concert 1996文莱皇家演唱会

这是一场非常特殊的演唱会,时间介于危险全球巡演和历史全球巡演之间,是于1996年7月16日,Michael Jackson在文莱的斯里巴加湾水晶公园,为庆祝文莱苏丹国王哈桑纳尔·博尔基亚(Hassanal Bolkiah)50岁生日举办的特别免费演出,当晚到场的6000多观众都是文莱的皇室成员和特约嘉宾,而MJ也非常卖力地进行了全场真唱,足显天王无人能敌的实力。

整个演唱会曲目编排与危险全球巡演类似,但又特别地融入了日后历史巡演的一些曲目,在此场演出中MJ第一次在演唱会现场表演了"You Are Not Alone" 和"Earth Song",特别是"Earth Song",MJ还在结尾加入了一段即兴,这是在其他演出中看不到的。而"Heal The World" 虽然在Dangerous 和HIStory巡演上都有表演但是却没有出现在文莱皇家演唱会上。

Royal concert in Brunei

Prior to the tour, Jackson performed a free concert at the Jerudong Park Amphitheatre in Bandar Seri Begawan, Brunei on 16 July, 1996, attended by 60,000 throughout the park. The concert was in celebration of the 50th birthday of Hassanal Bolkiah, the Sultan of Brunei and was attended by the Brunei royal family, though the Sultan himself did not attend.

Much of the concert resembled Jackson's Dangerous World Tour, including his outfit and the set list, keeping the details of the upcoming HIStory Tour a close secret. The concert also marked the debut live performance of "You Are Not Alone" and "Earth Song" as well as the last performances of "Jam", "Human Nature", "I Just Can't Stop Loving You" and "She's out of My Life" at a Jackson concert (Although all, except the latter were rehearsed for This Is It). "Heal the World" was present on the setlists of both the Dangerous and HIStory Tours, it was not on the setlist of the Royal Concert.

代码
Video
ID                               : 224 (0xE0)
Format                           : MPEG Video
Format version                   : Version 2
Format profile                   : Main@Main
Format settings, Matrix          : Default
Duration                         : 1h 48mn
Bit rate mode                    : Variable
Bit rate                         : 8 508 Kbps
Nominal bit rate                 : 9 394 Kbps
Width                            : 720 pixels
Height                           : 576 pixels
Display aspect ratio             : 4:3
Frame rate                       : 25.000 fps
Standard                         : PAL
Colorimetry                      : 4:2:0
Scan type                        : Interlaced
Scan order                       : Top Field First
Bits/(Pixel*Frame)               : 0.821
Stream size                      : 941 MiB (92%)

Audio
ID                               : 128 (0x80)
Format                           : AC-3
Format/Info                      : Audio Coding 3
Duration                         : 1h 48mn
Bit rate mode                    : Constant
Bit rate                         : 384 Kbps
Channel(s)                       : 2 channels
Channel positions                : L R
Sampling rate                    : 48.0 KHz
Video delay                      : -10ms
Stream size                      : 42.5 MiB (4%)



IPB Image



专辑曲目

01. "Brace Yourself" Video Introduction
02. "Jam"
03. "Wanna Be Startin' Somethin'"
04. "Human Nature"
05. "Smooth Criminal"
06. "I Just Can't Stop Loving You"
07. "She's out of My Life"
08. Jackson 5 Medley: "I Want You Back" / "The Love You Save" / "I'll Be There"
09. "Thriller"
10. "Billie Jean"
11. "The Way You Make Me Feel"
12. Black or White "Panther" Video Interlude
13. "Beat It"
14. "You Are Not Alone"
15. "Dangerous"
16. "Black or White"
17. "Man In The Mirror"
18. "Earth Song"

正在读取……

这里是其它用户补充的资源(我也要补充):

暂无补充资源
正在加载,请稍等...

点击查看所有49网友评论

 

(?) [公告]留口水、评论相关规则 | [活动]每日签到 轻松领取电驴经验

    小贴士:
  1. 类似“顶”、“沙发”之类没有营养的文字,对勤劳贡献的楼主来说是令人沮丧的反馈信息。
  2. 提问之前请再仔细看一遍楼主的说明,或许是您遗漏了。
  3. 勿催片。请相信驴友们对分享是富有激情的,如果确有更新版本,您一定能搜索到。
  4. 请勿到处挖坑绊人、招贴广告。既占空间让人厌烦,又没人会搭理,于人于己都无利。
  5. 如果您发现自己的评论不见了,请参考以上4条。