v

您的位置:VeryCD音乐演唱会

音乐资源事务区


Suicidal Tendencies -《Olympic Auditorium》[DVDRip]

  • 状态: 精华资源
  • 摘要:
    发行时间2005年
    语言英语
  • 时间: 2011/11/19 20:55:35 发布 | 2011/11/20 13:49:53 更新
  • 分类: 音乐  演唱会 

MTina

精华资源: 3862

全部资源: 3863

相关: 分享到新浪微博   转播到腾讯微博   分享到开心网   分享到人人   分享到QQ空间   订阅本资源RSS更新   美味书签  subtitle
该内容尚未提供权利证明,无法提供下载。
专辑中文名Olympic Auditorium
资源格式DVDRip
发行时间2005年
地区美国
语言英语
简介

IPB Image

内容介绍:

  Suicidal Tendencies是美国的铁杆朋克和重金属乐队,位于加利福尼亚州洛杉矶。在80年代初期,该组合的领导人从一开始就是直言不讳的歌手是迈克缪尔。乐队风格重点放在最终激流金属。当80年代早期非主流刚刚起步的时候,Suicidal Tendencies就以其标志性的融合了朋克、激流和疯克的音乐风格以及对抗性的歌词在其中占据了重要一席。经过不泄的斗争后,这支来自南加利福尼亚的乐队在此领域取得了辉煌的成绩,无数的演出、众多专辑、还有两项格来美奖提名。主唱Mike Muir,1982年他只是为了好玩而组建了乐队,他的特征很明显,强壮的身体,还有那块总包在头上的方头巾。开始的时候,他们只是一支 skater、punk乐队,很快就加入了一些金属元素,但他们既不能被认为是一支大众化的朋克乐队,也不能被看作一支金属乐队,在他们的音乐和歌词中,有着太多令人激动的相互融合的风格。 从20世纪80年代初那个“另类”一词还颇具内涵的时代开始,“自杀倾向”就不断为乐迷奉上他们那具有标志性的融合了朋克、鞭笞金属和疯克风格的音乐,并辅之以言词激烈的歌词。十年中,乐队通过他们那从不妥协的音乐和热辣的现场演出赢得了无数的拥戴者。  1982年,在美国加州的威尼斯,主唱迈克。缪尔(MikeMuir)把吉他手格兰特 埃斯特斯(Grant Estes)、贝司手户伊什 马亚加(Louiche Mayarga)和鼓手埃默里。史密斯(Amerv Smith)等召集到一起组成了“自杀倾向”。

Suicidal Tendencies (also known as S.T. or simply Suicidal) is an American hardcore punk/thrash metal band. They were formed in Venice, Los Angeles, California, in 1981 by the leader and only permanent member, singer Mike Muir. The band is credited as one of the "the fathers of crossover thrash". To date, Suicidal Tendencies have released ten studio albums (one of which is composed of never-before released material and the other is a re-recording of their first album), two compilation albums, four split albums, one VHS, and one EP.

代码
General
Complete name                    : Suicidal.Tendencies.Olympic.Auditorium.(2005).DVDRip.DivX5.avi
Format                           : AVI
Format/Info                      : Audio Video Interleave
Format profile                   : OpenDML
File size                        : 1.44 GiB
Duration                         : 1h 14mn
Overall bit rate                 : 1 160 Kbps
Writing application              : Lavf51.12.1

Video
ID                               : 0
Format                           : MPEG-4 Visual
Format profile                   : Simple@L1
Format settings, BVOP            : No
Format settings, QPel            : No
Format settings, GMC             : No warppoints
Format settings, Matrix          : Default (H.263)
Codec ID                         : DX50
Codec ID/Hint                    : DivX 5
Duration                         : 1h 14mn
Bit rate                         : 1 046 Kbps
Width                            : 720 pixels
Height                           : 480 pixels
Display aspect ratio             : 1.500
Frame rate                       : 29.970 fps
Standard                         : NTSC
Resolution                       : 24 bits
Colorimetry                      : 4:2:0
Scan type                        : Progressive
Bits/(Pixel*Frame)               : 0.101
Stream size                      : 1.30 GiB (90%)
Writing library                  : Lavc51.40.4

Audio
ID                               : 1
Format                           : MPEG Audio
Format version                   : Version 1
Format profile                   : Layer 3
Codec ID                         : 55
Codec ID/Hint                    : MP3
Duration                         : 1h 14mn
Bit rate mode                    : Constant
Bit rate                         : 256 Kbps
Channel(s)                       : 2 channels
Sampling rate                    : 48.0 KHz
Resolution                       : 16 bits
Stream size                      : 137 MiB (9%)
Alignment                        : Aligned on interleaves
Interleave, duration             : 24 ms (0.72 video frame)
Interleave, preload duration     : 24 ms
Writing library                  : LAME3.97


http://en.wikipedia.org/wiki/Live_at_the_Olympic_Auditorium

http://www.amazon.com/Suicidal-Tendencies-...03102K1S

IPB Image



专辑曲目

01. Intro - 01:38
02. I Shot Reagan - 02:47
03. War Inside My Head - 03:52
04. Subliminal - 05:37
05. Ain't Gonna Take It - 03:41
06. Send Me Your Money - 03:55
07. Suicidal Failure - 03:38
08. We Are Family - 04:38
09. Possessed To Skate - 03:28
10. I Saw Your Mommy - 06:00
11. Waking The Dead - 03:19
12. Show Some Love/Tear It Down - 04:47
13. Cyco Vision - 02:17
14. Two-Sided Politics - 01:46
15. Won't Fall In Love Today - 03:58
16. Institutionalized - 06:25
17. Pledge Your Allegiance - 05:49

正在读取……

这里是其它用户补充的资源(我也要补充):

暂无补充资源
正在加载,请稍等...

点击查看所有5网友评论

 

(?) [公告]留口水、评论相关规则 | [活动]每日签到 轻松领取电驴经验

    小贴士:
  1. 类似“顶”、“沙发”之类没有营养的文字,对勤劳贡献的楼主来说是令人沮丧的反馈信息。
  2. 提问之前请再仔细看一遍楼主的说明,或许是您遗漏了。
  3. 勿催片。请相信驴友们对分享是富有激情的,如果确有更新版本,您一定能搜索到。
  4. 请勿到处挖坑绊人、招贴广告。既占空间让人厌烦,又没人会搭理,于人于己都无利。
  5. 如果您发现自己的评论不见了,请参考以上4条。