v

您的位置:VeryCD音乐演唱会

音乐资源事务区


Twisted Sister -《A Twisted Christmas》[DVDRip]

  • 状态: 精华资源
  • 摘要:
    发行时间2007年
    语言英语
  • 时间: 2011/11/18 02:43:01 发布 | 2011/11/19 10:23:47 更新
  • 分类: 音乐  演唱会 

MTina

精华资源: 3862

全部资源: 3863

相关: 分享到新浪微博   转播到腾讯微博   分享到开心网   分享到人人   分享到QQ空间   订阅本资源RSS更新   美味书签  subtitle
该内容尚未提供权利证明,无法提供下载。
专辑中文名A Twisted Christmas
资源格式DVDRip
发行时间2007年
地区美国
语言英语
简介

IPB Image

内容介绍:

  纽约Twisted Sister乐队2007年发行的圣诞专辑 A Twisted Christmas 新泽西州表演现场DVD。专辑中的歌曲全部为翻唱的经典圣诞歌曲,将欢快活泼的圣诞歌曲翻唱成重金属。作为一支来自纽约的成立于70年代早期的乐队,TWISTED SISTER绝对是华丽摇滚乐队NEW YORK DOLLS的忠实学生,KISS的舞台表演和ALICE COOPER的恐怖造型也对其深具影响。

  由于NEW YORK DOLLS的叛逆形象和古怪行为所开的先例,纽约乐队成了行业禁忌,其中最大的受害者莫过于TWISTED SISTER,他们奋斗了将近十年,在80年代初才取得了较大的突破。而最终当这一切来临时,他们却成了摇滚阴暗史的最令人生厌的例子,于是他们的光明时刻很快嘎然而止。

  TWISTED SISTER 1983年的You Can't Stop Rock 'n' Roll以其精良的制作质量和强烈的音乐元素,冲到主流地面,获得金属迷的信任。那年晚些时候,洛杉矶的QUIET RIOT的处女作Metal Health(也是第一张重金属专辑)登上了排行榜榜首。TWISTED SISTER利用当时风头正盛的这种风格,发行了他们权威性的专辑——Stay Hungry。Snider为他们的音乐注入了更多的商业元素,歌曲更加向流行华丽靠拢。象巨兽级的打榜歌曲We're Gonna Take It和I Wanna Rock一直在电台和MTV遥遥领先,专辑也取得多白金销量。接下来声势浩大的巡演使得他们在排行榜的头几名停留了数月之久。同时迅速到来的是——对他们的极度厌恶。因为他们在转变了大多“愤怒”的美国少年及他们的父母对自己的看法之时,也失去了自己邪恶的形象,尤其重要的是失去了忠心的强硬金属迷的尊重。为挽回尴尬局面,1985年的Come Out and Play意图找到平衡点,既不想失中坚分子的宠,又想投流行支持者所好,他们从头到脚一幅极为华丽的打扮——但专辑还是很快从排行榜滑落。
  Snider仍频繁在焦距前暴光,这年稍迟些时候,他和摇滚巨星如Frank Zappa、Bob Denver等一起出现在参议院委员会前,反对音乐审查机构立法通过关于防止某些音乐毒害青少年的法案。乐队解散之后还出了不少专辑,不过都是些精选或者未发表曲目之类的东西,例如1992年的套装精选Big Hits and Nasty Cuts;1994年的现场专辑Live at Hammersmith;1999年的Club Daze Vol. 1;2001年的Club Daze Vol. 2;以上几个是乐队官方许可的,而且多少都有些未发表曲目在其中。


Twisted Sister is an American hair metal band from New York City. Their work fuses the shock tactics of Alice Cooper, the rebellious mood of the New Wave of British Heavy Metal, and the extravagant image of glam rock bands such as New York Dolls notably for the makeup. Musically, the band implements elements of traditional heavy metal bands such as Iron Maiden and Judas Priest, along with a style that is similar to early glam metal bands. The band is generally categorized as glam metal for their earlier work, although the band does not consider themselves to be so.


Twisted Sister ruled the airwaves and MTV in the 1980's with such monster hits as "We're Not Gonna Take It" and "I Wanna Rock." To date, the band has sold over 12 million albums worldwide and boasts 34 silver, gold and platinum certifications from 22 countries! Building on the band's huge fan base and the success of last year's A Twisted Christmas Holiday album, this DVD is the perfect stocking stuffer for all your rockers!

And now, Christmas just got a little more twisted!

Twisted Sister's A Twisted Christmas Live DVD captures the band's holiday 2006 show at New Jersey's Legendary Starland Ballroom, featuring performances of their greatest hits as well as Christmas songs from last year's holiday breakout album A Twisted Christmas. Twisted sister's ...Live DVD release will ignite the passions of the press and fans again - expect more madness this holiday season!

代码
General
Complete name                    : Twisted.Sister.A.Twisted.Christmas.(2007).(+Extras).FS.DVDRip.XviD-deadbodyman.avi
Format                           : AVI
Format/Info                      : Audio Video Interleave
File size                        : 1.46 GiB
Duration                         : 1h 23mn
Overall bit rate                 : 2 498 Kbps
Writing application              : VirtualDubMod 1.5.4.1 (build 2178/release)
Writing library                  : VirtualDubMod build 2178/release

Video
ID                               : 0
Format                           : MPEG-4 Visual
Format profile                   : Advanced Simple@L5
Format settings, BVOP            : Yes
Format settings, QPel            : No
Format settings, GMC             : No warppoints
Format settings, Matrix          : Custom
Codec ID                         : XVID
Codec ID/Hint                    : XviD
Duration                         : 1h 23mn
Bit rate                         : 2 300 Kbps
Width                            : 640 pixels
Height                           : 480 pixels
Display aspect ratio             : 4:3
Frame rate                       : 23.976 fps
Resolution                       : 8 bits
Colorimetry                      : 4:2:0
Scan type                        : Progressive
Bits/(Pixel*Frame)               : 0.312
Stream size                      : 1.34 GiB (92%)
Writing library                  : XviD 1.2.1 (UTC 2008-12-04)

Audio
ID                               : 1
Format                           : AC-3
Format/Info                      : Audio Coding 3
Codec ID                         : 2000
Duration                         : 1h 23mn
Bit rate mode                    : Constant
Bit rate                         : 192 Kbps
Channel(s)                       : 2 channels
Channel positions                : L R
Sampling rate                    : 48.0 KHz
Stream size                      : 115 MiB (8%)
Alignment                        : Split accross interleaves
Interleave, duration             : 96 ms (2.30 video frames)
Interleave, preload duration     : 96 ms
Language                         : English


代码
General
Complete name                    : Twisted.Sister.Heavy.Metal.Christmas.(2007).(Bonus).DVDRip.XviD-deadbodyman.avi
Format                           : AVI
Format/Info                      : Audio Video Interleave
File size                        : 175 MiB
Duration                         : 6mn 33s
Overall bit rate                 : 3 731 Kbps
Writing application              : VirtualDubMod 1.5.4.1 (build 2178/release)
Writing library                  : VirtualDubMod build 2178/release

Video
ID                               : 0
Format                           : MPEG-4 Visual
Format profile                   : Advanced Simple@L5
Format settings, BVOP            : Yes
Format settings, QPel            : No
Format settings, GMC             : No warppoints
Format settings, Matrix          : Custom
Codec ID                         : XVID
Codec ID/Hint                    : XviD
Duration                         : 6mn 33s
Bit rate                         : 3 602 Kbps
Width                            : 720 pixels
Height                           : 400 pixels
Display aspect ratio             : 16:9
Frame rate                       : 29.970 fps
Resolution                       : 8 bits
Colorimetry                      : 4:2:0
Scan type                        : Progressive
Bits/(Pixel*Frame)               : 0.417
Stream size                      : 169 MiB (97%)
Writing library                  : XviD 1.2.1 (UTC 2008-12-04)

Audio
ID                               : 1
Format                           : MPEG Audio
Format version                   : Version 1
Format profile                   : Layer 3
Mode                             : Joint stereo / MS Stereo
Codec ID                         : 55
Codec ID/Hint                    : MP3
Duration                         : 6mn 33s
Bit rate mode                    : Variable
Bit rate                         : 115 Kbps
Nominal bit rate                 : 128 Kbps
Channel(s)                       : 2 channels
Sampling rate                    : 48.0 KHz
Stream size                      : 5.41 MiB (3%)
Alignment                        : Aligned on interleaves
Interleave, duration             : 24 ms (0.72 video frame)
Interleave, preload duration     : 472 ms
Writing library                  : LAME3.98r
Encoding settings                : -m j -V 4 -q 2 -lowpass 17 --abr 128


http://www.amazon.com/Twisted-Sister-Chris...00UX6TN4

IPB Image


IPB Image



专辑曲目

DVD1
01.Have Yourself A Merry Little Christmas
02.Shoot 'Em Down
03.I Saw Mommy Kissing Santa Claus
04.The Fire Still Burns
05.You Can't Stop Rock & Roll
06.White Christmas
07.The Price
08.Oh Come All Ye Faithful
09.I'll Be Home For Christmas
10.Burn In Hell
11.Silver Bells
12.I Wanna Rock
13.Heavy Metal Christmas (The Twelve Days Of Christmas)
14.We're Not Gonna Take It

DVD2
Bonus Materials:
15.Oh Come All Ye Faithful 6:33
16.Oh Come All Ye Faithful 2:13
17.Heavy Metal Christmas (The Twelve Days of Christmas) 5:59
18.Interview 1:14
19.Mendoza's Choir 6:23

正在读取……

这里是其它用户补充的资源(我也要补充):

暂无补充资源
正在加载,请稍等...

点击查看所有9网友评论

 

(?) [公告]留口水、评论相关规则 | [活动]每日签到 轻松领取电驴经验

    小贴士:
  1. 类似“顶”、“沙发”之类没有营养的文字,对勤劳贡献的楼主来说是令人沮丧的反馈信息。
  2. 提问之前请再仔细看一遍楼主的说明,或许是您遗漏了。
  3. 勿催片。请相信驴友们对分享是富有激情的,如果确有更新版本,您一定能搜索到。
  4. 请勿到处挖坑绊人、招贴广告。既占空间让人厌烦,又没人会搭理,于人于己都无利。
  5. 如果您发现自己的评论不见了,请参考以上4条。