v

您的位置:VeryCD音乐演唱会

音乐资源事务区


Kenny Rogers -《The Journey》[DVDRip]

  • 状态: 精华资源
  • 摘要:
    发行时间2006年
    语言英语
  • 时间: 2011/11/18 00:11:20 发布 | 2011/12/10 12:42:07 更新
  • 分类: 音乐  演唱会 

MTina

精华资源: 3862

全部资源: 3863

相关: 分享到新浪微博   转播到腾讯微博   分享到开心网   分享到人人   分享到QQ空间   订阅本资源RSS更新   美味书签  subtitle
该内容尚未提供权利证明,无法提供下载。
专辑中文名The Journey
歌手Kenny Rogers
资源格式DVDRip
发行时间2006年
地区美国
语言英语
简介

IPB Image

内容介绍:

  在热门音乐的市场上,乡村音乐始终不被认为是所谓的「主流」,即使是在它大本营的美国,有惊人的广大群众都喜爱乡村歌曲,但通常仍然受到不少的误解跟排斥,认为这种音乐比较俚俗、草根性太强,所以很难打进流行市场的排行,影响之下,乡村歌手们的身价,也就远远不如所谓的「热门」歌手。最近这些年来,情况有了些改变,包括葛司布鲁克斯(Garth Brooks)、仙妮亚唐恩(Shania Twain)、费丝希尔(Faith Hill)和黎安莱姆丝(LeAnn Rimes)等人,都创下了惊人的销售成绩,缔造了非凡的身价。而掀起这波乡村歌手「捞过界」狂潮的,则是肯尼罗杰斯(Kenny Rogers)。

  屈指可数的世界超级巨星Kenny Rogers(肯尼·罗杰斯),美国乡村歌曲手,出生于美国德克萨斯州,天生一头银发和银须的肯尼,在人们心目中是一位温和可、风度翩翩的作曲家兼演唱者,Kenny Rogers的特点是能把乡村音乐与流行音乐结合起来,肯尼·罗杰斯Kenny Rogers因此成为美国大众文化的象征人物。以其浑厚且具磁性的嗓音,及充满雄性魅力象征的落腮胡是其不变的形象,树立自己的风格,在流行乐与乡村乐跨界的潜力无以伦比,《Lady》是 Kenny Rogers最着名的情歌,由Lionel Richie为他量身打造不朽金曲 ,Lady曾称雄排行榜达六週之久。 歌曲的开头听起来有些悲伤的意味,直到全曲完全展开的时候,才感受到歌曲的深情。Kenny Rogers略带沙哑的嗓音将这种带着悲伤的深情演绎的无比动人。

  出身赤贫农家的肯尼罗杰斯,早年唱过爵士与民歌,后来在60年代末期与友人共同组成「第一版」(The First Edition)合唱团,在「老鹰」(Eagles)还没有出现以前,就已经率先以「乡村摇滚」大为走红。 70年代中期,由于内部的纠纷,合唱团宣告解体,负债累累的肯尼罗杰斯毅然转往纳许维尔,以独唱乡村歌手的姿态东山再起,成了当时最走红的乡村歌手,连续好几首单曲都成功的捞过界,打进流行排行的前五名,几位女歌手也因为与他合唱,而开创了个人唱片生涯的高峰。另外,由于他勇于向自我挑战,不断寻求新的合作对象、尝试新的风格,更在1980年因为请到了当时还是「海军准将」合唱团(Commodores)主唱的黑人歌手莱昂纳尔·里奇(Lionel Richie )为他担任制作人,以一曲「Lady」造成了疯狂的轰动,不但同时在流行、乡村与蓝调等三大排行榜夺魁,在流行榜更获得连续六周的冠军,红遍了全球。

  肯尼罗杰斯在唱片市场上的魅力,看在唱片公司的眼中,的确有如超级的摇钱树。当他与EMI的合约将满之际,各大公司纷纷展开挖角的攻势,最后,RCA以两千万美元的空前高价,成功的把他网罗到旗下,羡煞了许多大牌的超级巨星,更让他成为当时举世身价最高的男歌手.RCA旗下头牌的乡村女歌手桃莉芭顿(Dolly Parton)跟肯尼罗杰斯合唱「Islands In The Stream」,赢得了全美音乐奖的「年度最佳乡村单曲」,以及「乡村音乐学院」的「年度最佳二重唱」与「年度最佳单曲」,同时也是1983年度唯一成为白金唱片的单曲。由于这次合作的成功,桃莉芭顿跟肯尼罗杰斯成了一对最佳拍档,连续合作了许多次。除了在1984年联袂推出一张圣诞歌曲专辑、共同拍摄圣诞节特别节目,还一起巡回演出.

Kenny Rogers: The Journey is a solid and engaging account of Rogers' lengthy career in music, certain to teach any viewer something they didn't know about the many chapters in the superstar's life as an artist. A documentary, The Journey is a mix of concert footage (most of it archival) and interviews with Rogers, as well as numerous insights from key people in his history of making hit records. The overall message is that Rogers has been a class act from the very beginning, certain of his work ethic as well as his talent and ability to choose the right collaborators. High points include Rogers' reunion with the Bobby Doyle Three, the jazz-vocal group he joined right out of high school, and a smooth duet with Willie Nelson on Irving Berlin's "Blue Skies" (a performance in which Rogers resurrects his old skills playing upright bass). There's a lot of discussion about Rogers' instincts for finding great duet partners of the female variety: Dottie West, Kim Carnes, Dolly Parton, and even Sheena Easton (who, apparently, didn't get along with Rogers too well). Various insights about the early stages of Rogers' musical evolution are very interesting, especially his comments about the pop-folk group the New Christy Minstrels proving too restricting, giving rise to Rogers' soft-rock band the First Edition, followed by a solo career he feared would become "too country" with his smash hit, "Lucille." Also a lot of fun: Lionel Richie's self-effacing account of producing Rogers' successful attempt at a country-R&B crossover, "Lady." --Tom Keogh

代码
General
Complete name                    : Kenny.Rogers.The.Journey.(2006).DVDRip.AC3.XviD-deadbodyman.avi
Format                           : AVI
Format/Info                      : Audio Video Interleave
File size                        : 1.46 GiB
Duration                         : 1h 35mn
Overal bit rate                  : 2182 Kbps
Writing application              : VirtualDubMod 1.5.4.1 (build 2178/release)
Writing library                  : VirtualDubMod build 2178/release

Video
Format                           : MPEG-4 Visual
Format profile                   : Streaming Video@L1
Format settings, BVOP            : Yes
Format settings, QPel            : No
Format settings, GMC             : No warppoints
Format settings, Matrix          : Custom
Codec ID                         : XVID
Codec ID/Hint                    : XviD
Duration                         : 1h 35mn
Bit rate                         : 1727 Kbps
Width                            : 720 pixels
Height                           : 416 pixels
Display aspect ratio             : 16/9
Frame rate                       : 23.976 fps
Resolution                       : 8 bits
Colorimetry                      : 4:2:0
Scan type                        : Progressive
Bits/(Pixel*Frame)               : 0.240
Stream size                      : 1.15 GiB
Writing library                  : XviD 50

Audio
Format                           : AC-3
Format/Info                      : Audio Coding 3
Codec ID                         : 2000
Duration                         : 1h 35mn
Bit rate mode                    : Constant
Bit rate                         : 448 Kbps
Channel(s)                       : 6 channels
Channel positions                : Front: L C R, Rear: L R, LFE
Sampling rate                    : 48.0 KHz
Stream size                      : 307 MiB


IPB Image

IPB Image

IPB Image

IPB Image



专辑曲目

01. Main Titles/Pictures With Words
02. I Just Dropped In
03. The First Edition
04. Something's Burning
05. Don't Fall in Love With a Dreamer
06. No Barriers
07. She Even Woke Me up to Say Goodbye
08. Blue Skies
09. It's a Good Day
10. I Can't Unlove You
11. Ruby (Don't Take Your Love to Town)
12. Going Solo
13. Lucille
14. Someome Is Me
15. She Believes in Me
16. The Last Ten Years
17. Every Time Two Fools Collide
18. We've Got Tonight
19. The Gambler
20. Coward of the County
21. Lady
22. Through the Years
23. The Greatest
24. Buy Me a Rose
25. Islands in the Stream
26. Water and Bridges
27. Sweet Music Man
28. End Credits

The Journey contains:

Kenny's Classic Hits, Plus Five New Songs From His 2006 International Tour
Rare Music Video "Tell It All Brother" from His Early Career
Behind-the-Scenes Studio Rehearsal with Dolly Parton
Kenny Rogers' Photography Gallery
The Ones That Got Away - Extended Interviews with David Foster and Lionel Richie

正在读取……

这里是其它用户补充的资源(我也要补充):

暂无补充资源
正在加载,请稍等...

点击查看所有20网友评论

 

(?) [公告]留口水、评论相关规则 | [活动]每日签到 轻松领取电驴经验

    小贴士:
  1. 类似“顶”、“沙发”之类没有营养的文字,对勤劳贡献的楼主来说是令人沮丧的反馈信息。
  2. 提问之前请再仔细看一遍楼主的说明,或许是您遗漏了。
  3. 勿催片。请相信驴友们对分享是富有激情的,如果确有更新版本,您一定能搜索到。
  4. 请勿到处挖坑绊人、招贴广告。既占空间让人厌烦,又没人会搭理,于人于己都无利。
  5. 如果您发现自己的评论不见了,请参考以上4条。