v

您的位置:VeryCD音乐演唱会

音乐资源事务区


Sade -《Lovers Live》[DVDRip]

  • 状态: 精华资源
  • 摘要:
    发行时间2002年3月5日
    语言英语
  • 时间: 2011/11/13 16:04:49 发布 | 2011/12/10 12:45:06 更新
  • 分类: 音乐  演唱会 

MTina

精华资源: 3862

全部资源: 3863

相关: 分享到新浪微博   转播到腾讯微博   分享到开心网   分享到人人   分享到QQ空间   订阅本资源RSS更新   美味书签  subtitle
该内容尚未提供权利证明,无法提供下载。
专辑中文名Lovers Live
歌手Sade
资源格式DVDRip
发行时间2002年3月5日
地区英国
语言英语
简介

IPB Image

内容介绍:

贯穿Sade所有音乐作品的不变主题。从第一张专辑里的" Your Love King" ," Hang on to Your Love" ,到1988年的" Love is stronger than Pride" 到1992年的" No ordinary love" 到2000年的格莱美最佳流行大碟《Lovers Rock》,Sade的音乐从来都不缺乏漫溢的情感和温暖的爱意。与其说Sade是依靠着新潮的表现方式烘托她的音乐,还不如说她是凭借着歌曲在表层柔情下的镌永内涵而让人深深吸引。她的音乐是温暖的,柔软的,可以让耳朵,灵魂抚慰的。听Sade的音乐,就像和最忠贞的情人恋爱,你有完全的安全感,你知道你是不会被抛弃的,他(她)永远会By Your Side。

  从84年出道至今发行过五张专辑及一张精选缉的Sade,全球累积销售以达四千六百万张以上,无人可凌驾她独树一帜的音乐质感及地位,启发熏陶后辈女夹手们向她看齐。而本辑《Lovers Live》为Sade在《Lover Rocks》发行次年后于巡回演出行程中所录制的一张跨越各个时期、用心谱写其音乐历程的精选专辑,13首歌曲皆是歌迷频频回味最爱的Sade式情歌,从《Smooth Operator》、《The Sweetest Taboo》、《No Ordinary Love》、《Kiss Of Life》、《Pradise》到专辑《Lovers Rocks》的《By Your Side》,目眩神迷气氛弥漫,悠扬细致的旋音与你同声气息,咀嚼释放往日种种情伤,无所防备触击最深的感动!Sade的音乐魅力是随时间越形沉静醇美,不断诱发人们心神弛往。面对音乐潮流瞬息万变的当下,Sade的《Lover Rocks》证明真正感动人心的声音不会被流行狂潮所掩没,发行后首先得到29届全美音乐奖—-现代成人类最佳歌手殊荣,亦一举在2002年葛莱美奖获得最佳流行女歌手、最佳流行专辑等提名,及全英音乐奖最佳女歌手提名,同时赢得英美两地最具权威的音乐大奖青昧。

本辑Lovers Live为Sade在Lovers Rock发行后次年于巡回演出行程中所录制的一张跨越各个时期、用心谱写其音乐历程的精选专辑,13首歌曲皆是歌迷频频回味的Sade式情歌。从《Smooth Operator》、《The Sweetest Taboo》、《No Ordinary Love》、《Kiss Of Life》、《Paradise…》到《Lovers Rocks》中的《By Your Side》,目眩神迷气氛弥漫,悠扬细致的旋音与你同声气息,咀嚼释放往日种种情伤,无所防备触击最深的感动!从84年出道至今发行过五张专辑及一张精选辑的Sade,全球累计销售已达四千六百万张以上,无人可凌驾她独树一格的音乐质感及地位,启发熏陶后辈女歌手们向她看齐。

Sade Live (also known as the Once in a Lifetime Tour) is the sixth concert tour by English band, Sade. Visiting Europe and North America, the tour will support the band's sixth studio album, Soldier of Love and their second compilation album, The Ultimate Collection. This trek marks the band's first tour in nearly a decade. The tour ranked 27th in Pollstar's "Top 50 Worldwide Tour (Mid-Year)", earning over 20 million dollars.

allmusic.com review by Hal Horowitz :

Nearly doubling the amount of tracks and running time of the similarly titled album, this video of one date on Sade's 2001 world tour serves as a handy greatest-hits package as well as documenting one of the classiest and highest-grossing tours of that year. Anyone who thinks Sade's music is too ethereal or plush to make an impact on a concert stage instead of the bedroom needs only to watch this to understand how the creative lights, imaginative set, rear projection films, and her impeccable band combine to create a performance every bit as exciting as Madonna's and far less ostentatious.

Since this particular show wasn't altered for film, some of the footage is grainier than you'd think for a high-profile release. The camera work is excellent if a bit more hyperactive than necessary, and Sade's subtle yet charismatic stage presence -- along with a lone costume change -- proves that in her case, less is more. Extras include short, snappy, but not particularly illuminating backstage and off-stage "candid" visits called "The Band Walking" and "Sade Walking" that lead you to believe everyone had a blast working together, the video for "King of Sorrow" along with black-and-white stills from the tour, and fans gushing their love for the star. In other words, not much. But most important is the 5.1 remixed sound that infuses additional warmth, presence, and intimacy to her already lush music. Occasionally close-ups prove there was some post-concert overdubbing to clean up the audio and fix mistakes, but this is still a remarkably accurate representation of the tour. The order of the songs is identical to the nightly set list, and the extended take on "Smooth Operator" which leads into an instrumental band jam on "Redeye" (neither are on the album) is alone worth the price of this DVD, even if you already own the audio-only version. Changing between menu options is choppy and oddly time-consuming, but this is a video that any Sade fan will need to own. It should also make new fans from those as yet unconvinced of her exquisite vocal charms and magnetic allure live.

http://www.amazon.com/Sade-Lovers-Live/dp/B00005YUNM

http://en.wikipedia.org/wiki/Lovers_Live

引用
General

Format : AVI
Format/Info : Audio Video Interleave
File size : 1.37 GiB
Duration : 1h 56mn
Overall bit rate : 1 685 Kbps
Writing application : VirtualDubMod 1.5.4.1 (build 2178/release)
Writing library : VirtualDubMod build 2178/release

Video
ID : 0
Format : MPEG-4 Visual
Format profile : Advanced Simple@L5
Format settings, BVOP : 1
Format settings, QPel : No
Format settings, GMC : No warppoints
Format settings, Matrix : Custom
Codec ID : XVID
Codec ID/Hint : XviD
Duration : 1h 56mn
Bit rate : 1 486 Kbps
Width : 640 pixels
Height : 368 pixels
Display aspect ratio : 16:9
Frame rate : 25.000 fps
Color space : YUV
Chroma subsampling : 4:2:0
Bit depth : 8 bits
Scan type : Progressive
Compression mode : Lossy
Bits/(Pixel*Frame) : 0.252
Stream size : 1.21 GiB (88%)
Writing library : XviD 1.2.1 (UTC 2008-12-04)

Audio
ID : 1
Format : MPEG Audio
Format version : Version 1
Format profile : Layer 3
Mode : Joint stereo
Mode extension : MS Stereo
Codec ID : 55
Codec ID/Hint : MP3
Duration : 1h 56mn
Bit rate mode : Constant
Bit rate : 192 Kbps
Channel(s) : 2 channels
Sampling rate : 48.0 KHz
Compression mode : Lossy
Stream size : 160 MiB (11%)
Alignment : Aligned on interleaves
Interleave, duration : 80 ms (2.00 video frames)
Interleave, preload duration : 504 ms
Writing library : LAME3.98r
Encoding settings : -m j -V 4 -q 2 -lowpass 18.6 -b 192


IPB Image



专辑曲目

01.Cherish The Day
02.Your Love Is King
03.Somebody Already Broke My Heart
04.Cherry Pie
05.Pearls
06.Every Word
07.Smooth Operator
08.Redeye
09.Jezebel
10.Kiss Of Life
11.Slave Song
12.The Sweetest Gift
13.The Sweetest Taboo
14.Lovers Rock
15.Immigrant
16.Paradise
17.King Of Sorrow
18.No Ordinary Love
19.By Your Side
20.Flow
21.Is It A Crime
22.It's Only Love That Gets You Through

正在读取……

这里是其它用户补充的资源(我也要补充):

暂无补充资源
正在加载,请稍等...

点击查看所有18网友评论

 

(?) [公告]留口水、评论相关规则 | [活动]每日签到 轻松领取电驴经验

    小贴士:
  1. 类似“顶”、“沙发”之类没有营养的文字,对勤劳贡献的楼主来说是令人沮丧的反馈信息。
  2. 提问之前请再仔细看一遍楼主的说明,或许是您遗漏了。
  3. 勿催片。请相信驴友们对分享是富有激情的,如果确有更新版本,您一定能搜索到。
  4. 请勿到处挖坑绊人、招贴广告。既占空间让人厌烦,又没人会搭理,于人于己都无利。
  5. 如果您发现自己的评论不见了,请参考以上4条。