v

您的位置:VeryCD音乐演唱会

音乐资源事务区


Ronnie James Dio -《Sacred Heart》[DVDRip]

  • 状态: 精华资源
  • 摘要:
    发行时间2004年
    语言英语
  • 时间: 2011/11/12 02:18:41 发布 | 2011/11/12 15:26:00 更新
  • 分类: 音乐  演唱会 

MTina

精华资源: 3862

全部资源: 3863

相关: 分享到新浪微博   转播到腾讯微博   分享到开心网   分享到人人   分享到QQ空间   订阅本资源RSS更新   美味书签  subtitle
该内容尚未提供权利证明,无法提供下载。
专辑中文名Sacred Heart
资源格式DVDRip
发行时间2004年
地区美国
语言英语
简介

IPB Image

内容介绍 :

  迪欧最为人熟知的身份是黑色安息日的主唱,其实他还是精灵(Elf)、彩虹(Rainbow)、天堂和地狱、迪欧等乐队的成员。1969年,迪欧把自己原先所属的一支乐队改名为精灵,并成为了深紫的暖场乐队。1975年吉他手里奇·布莱克默(Ritchie Blackmore)离开深紫后,邀请迪欧和精灵的另一名成员组建了彩虹乐队。1979年,迪欧替代奥兹·奥斯本(Ozzy Osbourne)成为了黑色安息日的主唱。次年他参与制作了影响深远的专辑《天堂和地狱》,并藉此让安息日的事业再次腾飞。1982年,迪欧和鼓手文尼·阿皮斯(Vinny Appice)离开安息日组建了以自己名字命名的乐队“迪欧”。2006年,当安息日进入休整状态后,迪欧、阿皮斯又和安息日的吉他手托尼·艾欧米(Tony Iommi)和贝斯手基泽·巴特勒(Geezer Butler)组建了天堂和地狱乐队。
  迪欧的影响不仅在音乐上,他甚至引领了一种文化。洛杉矶摇滚乐队Tenacious D曾专门写了一首名为《迪欧》的歌向他致敬。《纽约时报》和《华盛顿邮报》的资深文化娱乐记者恰克·克罗斯特曼(Chuck Klosterman)称赞迪欧的嗓音是金属乐的标杆,他说:“任何学习金属唱法的人其实都在模仿迪欧。事实上,当摇滚乐迷碰上了青少年金属亚文化群(玩龙与地下城游戏,打恶魔角的手势,穿黑T恤,痴迷于超级坏蛋),他们所做的一切全是对迪欧形象的扩展。迪欧文化影响深远。听听他在黑色安息日时制作的头两张专辑,你会发现他的歌词创意有趣且令人难忘。他对待自己的方式既是严肃的,又是漫不经心的。”其实迪欧并不是第一个使用恶魔角手势的人,但确实是他在黑色安息日期间让这个手势流行起来。他说这是祖母用来驱邪的手势,在南方意大利人中非常流行。
  2011年当地时间16日清晨,美国著名重金属歌手和词作者、前黑色安息日(Black Sabbath)主唱、恶魔角(devil horns)手势的推广者罗尼·詹姆斯·迪欧(Ronnie James Dio)因胃癌不治去世,享年67岁。

Ronnie James Dio,很早就成名的重金属歌唱家(他不是能够被简单的称为歌手的那种),先后在ELF、RAINBOW和BLACK SABBATH中担任过主唱,经过磨练后,他在1983年推出了首张个人专辑《Holy Diver》,是他迄今为止最好的专辑。2006年,dio和Tony Iommi, Geezer Butler和black sabbath先前的鼓手再次回到一起,发了《the dio years》这张精选专辑,并且之后以heaven&hell为名重新组团。2006年,dio还曾涉影,在jack black的电影《the pick of destiny》出现,以little jb的偶像而给主角指出摇滚之路。在2007年1月17日,他入选摇滚名人堂。

http://www.ronniejamesdio.com/

In all the universe, there is but one land where a fire-breathing dragon, a castle, and a giant chrystal ball exist side-by-side with lasers, holograms, and 25 tons of high-technology sound equipment....and that is the realm of DIO.

More that 1 million people in more that 100 cities worldwide have been transported by the metal mysticism of DIO's Sacred Heart tour....and the stage set voted best in all of rock 'n' roll by Pollstar and Performance Magazine.

Vocalist Ronnie James Dio, drummer Vinny Appice, bassist Jimmy Bain, guitarist Craig Goldie, and keyboardist Claude Schnell deliver DIO's greatest hits in this modern fable of myth and power from the sold-out Philadelphia Spectrum.

代码
General
Complete name                    : Dio.Sacred.Heart.The.DVD.(2004).FS.DVDRip.XviD-deadbodyman.avi
Format                           : AVI
Format/Info                      : Audio Video Interleave
File size                        : 700 MiB
Duration                         : 57mn 49s
Overall bit rate                 : 1 693 Kbps
Writing application              : VirtualDubMod 1.5.4.1 (build 2178/release)
Writing library                  : VirtualDubMod build 2178/release

Video
ID                               : 0
Format                           : MPEG-4 Visual
Format profile                   : Advanced Simple@L5
Format settings, BVOP            : Yes
Format settings, QPel            : No
Format settings, GMC             : No warppoints
Format settings, Matrix          : Custom
Codec ID                         : XVID
Codec ID/Hint                    : XviD
Duration                         : 57mn 49s
Bit rate                         : 1 493 Kbps
Width                            : 640 pixels
Height                           : 480 pixels
Display aspect ratio             : 4:3
Frame rate                       : 29.970 fps
Color space                      : YUV
Chroma subsampling               : 4:2:0
Bit depth                        : 8 bits
Scan type                        : Progressive
Bits/(Pixel*Frame)               : 0.162
Stream size                      : 618 MiB (88%)
Writing library                  : XviD 1.2.1 (UTC 2008-12-04)

Audio
ID                               : 1
Format                           : AC-3
Format/Info                      : Audio Coding 3
Mode extension                   : CM (complete main)
Codec ID                         : 2000
Duration                         : 57mn 49s
Bit rate mode                    : Constant
Bit rate                         : 192 Kbps
Channel(s)                       : 2 channels
Channel positions                : Front: L R
Sampling rate                    : 48.0 KHz
Stream size                      : 79.4 MiB (11%)
Alignment                        : Aligned on interleaves
Interleave, duration             : 96 ms (2.88 video frames)
Interleave, preload duration     : 96 ms


代码
General
Complete name                    : Dio.Sacred.Heart.The.DVD.(2005).Extras.FS.DVDRip.XviD-deadbodyman.avi
Format                           : AVI
Format/Info                      : Audio Video Interleave
File size                        : 233 MiB
Duration                         : 18mn 45s
Overall bit rate                 : 1 737 Kbps
Writing application              : VirtualDubMod 1.5.4.1 (build 2178/release)
Writing library                  : VirtualDubMod build 2178/release

Video
ID                               : 0
Format                           : MPEG-4 Visual
Format profile                   : Advanced Simple@L5
Format settings, BVOP            : Yes
Format settings, QPel            : No
Format settings, GMC             : No warppoints
Format settings, Matrix          : Custom
Codec ID                         : XVID
Codec ID/Hint                    : XviD
Duration                         : 18mn 45s
Bit rate                         : 1 537 Kbps
Width                            : 640 pixels
Height                           : 480 pixels
Display aspect ratio             : 4:3
Frame rate                       : 29.970 fps
Color space                      : YUV
Chroma subsampling               : 4:2:0
Bit depth                        : 8 bits
Scan type                        : Progressive
Bits/(Pixel*Frame)               : 0.167
Stream size                      : 206 MiB (88%)
Writing library                  : XviD 1.2.1 (UTC 2008-12-04)

Audio
ID                               : 1
Format                           : AC-3
Format/Info                      : Audio Coding 3
Mode extension                   : CM (complete main)
Codec ID                         : 2000
Duration                         : 18mn 45s
Bit rate mode                    : Constant
Bit rate                         : 192 Kbps
Channel(s)                       : 2 channels
Channel positions                : Front: L R
Sampling rate                    : 48.0 KHz
Stream size                      : 25.8 MiB (11%)
Alignment                        : Aligned on interleaves
Interleave, duration             : 96 ms (2.88 video frames)
Interleave, preload duration     : 96 ms


IPB Image

IPB Image

http://www.amazon.com/Dio-Sacred-Heart-Ron...0016MSUI



专辑曲目

01. Draco Ignis
02. King of Rock and Roll
03. Time to Burn
04. The Last in Line/Holy Diver
05. Heaven and Hell
06. Sacred Heart
07. Rock 'N' Roll Children
08. Long Live Rock 'N' Roll
09. Man on the Silver Mountain
10. Rock 'N' Roll Children (Reprise)
11. Rainbow in the Dark
12. Hungry for Heaven

正在读取……

这里是其它用户补充的资源(我也要补充):

暂无补充资源
正在加载,请稍等...

点击查看所有8网友评论

 

(?) [公告]留口水、评论相关规则 | [活动]每日签到 轻松领取电驴经验

    小贴士:
  1. 类似“顶”、“沙发”之类没有营养的文字,对勤劳贡献的楼主来说是令人沮丧的反馈信息。
  2. 提问之前请再仔细看一遍楼主的说明,或许是您遗漏了。
  3. 勿催片。请相信驴友们对分享是富有激情的,如果确有更新版本,您一定能搜索到。
  4. 请勿到处挖坑绊人、招贴广告。既占空间让人厌烦,又没人会搭理,于人于己都无利。
  5. 如果您发现自己的评论不见了,请参考以上4条。