v

您的位置:VeryCD音乐演唱会

音乐资源事务区


Motley Crue -《Carnival of Sins》[DVDRip]

  • 状态: 精华资源
  • 摘要:
    发行时间2005年
    语言英语
  • 时间: 2011/11/12 01:16:30 发布 | 2011/11/12 15:25:39 更新
  • 分类: 音乐  演唱会 

MTina

精华资源: 3862

全部资源: 3863

相关: 分享到新浪微博   转播到腾讯微博   分享到开心网   分享到人人   分享到QQ空间   订阅本资源RSS更新   美味书签  subtitle
该内容尚未提供权利证明,无法提供下载。
专辑中文名Carnival of Sins
歌手Motley Crue
资源格式DVDRip
发行时间2005年
地区美国
语言英语
简介

IPB Image

内容介绍 :

DVD记载了Motley Crue名为"嘉年华罪孽"的演唱会现场!巨大的马戏团帐篷舞台布景,拍摄时使用20个高清摄像头,使从未有过的高清晰度画面和音频得以展示。DVD包含超过2小时不停歇的演唱,和内部大热门的纪录片以及幕后花絮镜头。

Motley Crue乐队的创立者是贝斯手Nikki Sixx还有鼓手Tommy Lee,之后加入还有主吉他手Mick Mars和主唱Vince Neil.Motley Crue在世界范围内共售出唱片8000多万张,其中包括美国国内的2350万张.

  Motley Crue是80年代流行金属的经典乐队,即使在流行金属已经开始出现衰败的90年代中后仍旧保持着较高的专辑销售数量和广泛的歌迷基础.同时他们也是80年代流金界争议较大的乐队,由于乐队成员过多的花边新闻和负面事件常常使得大众更多的关注乐队的生活而不是他们的音乐.早期乐队长期沉溺于酒精和毒品还有身边无数的女人,此外满身的文身也是乐队成员的特点之一.08年7月24日发行了他们的第9张专辑Saints of Los Angeles,他们最畅销的乐队传记The Dirt改编来的电影可能会在2011年拍摄上映.

  2000年的MOTLEY CRUE又发行了新的专辑New Tattoo,风格终于回到了80年代的经典华丽金属,算是对歌迷多年来支持的回报。这张专辑之后乐队没有过多动作,只是不断的发行各式各样的精选专辑,并将之间的所有专辑进行再版发行。Tommy Lee发行了自己的个人专辑,而Nikki Sixx则与LA GUNS的Tracii Guns组建了新乐队BRIDES OF DESTRUCTION,另外Vince Neil也发表了一张个人现场专辑。

Infamous for visually wild and intensely live stage shows, original Crue members Vince Neil, Nikki Sixx, Mick Mars and Tommy Lee set a new standard with a "circus gone bad" concept spectacular all taking place under a huge circus tent stage set. The pyrotechnics are excessive and the fire-breathing midgets, seductive aerialists and demonic clowns keep the crowd roaring for more.

Before I bought this dvd, my main concern was wether Vince would be up to the task and be able do himself justice. After the Lewd, Crue'd & Tattooed DVD, many people thought Vince was past it. It brings me great pleasure in saying the Crue are back! Vince, Nikki, Mick & Tommy put on a kick-ass show which is as good, if not better, than anything they did in the 80's. My only disapointment is that Vince wasn't screaming out Kickstart My Heart as well as he could be, but I only noticed as its my personal fave, to be honest. I totally recommend this to any rock fan, the Crue really are on top form. I really hope this is a comeback tour & not a goodbye one, because on this form, they can revive metal music the same way Iron Maiden did in the early 80's. Don't believe me, buy the DVD & prove me right!

IPB Image

IPB Image

IPB Image

IPB Image

IPB Image


代码
General
Complete name                    : Motley.Crue.Carnival.of.Sins.(2005).DVDRip.AC3.XviD-deadbodyman.avi
Format                           : AVI
Format/Info                      : Audio Video Interleave
Format profile                   : OpenDML
File size                        : 1.99 GiB
Duration                         : 2h 17mn
Overall bit rate                 : 2 084 Kbps
Writing application              : VirtualDubMod 1.5.4.1 (build 2178/release)
Writing library                  : VirtualDubMod build 2178/release

Video
ID                               : 0
Format                           : MPEG-4 Visual
Format profile                   : Advanced Simple@L5
Format settings, BVOP            : Yes
Format settings, QPel            : No
Format settings, GMC             : No warppoints
Format settings, Matrix          : Custom
Codec ID                         : XVID
Codec ID/Hint                    : XviD
Duration                         : 2h 17mn
Bit rate                         : 1 626 Kbps
Width                            : 720 pixels
Height                           : 416 pixels
Display aspect ratio             : 16:9
Frame rate                       : 29.970 fps
Color space                      : YUV
Chroma subsampling               : 4:2:0
Bit depth                        : 8 bits
Scan type                        : Progressive
Bits/(Pixel*Frame)               : 0.181
Stream size                      : 1.56 GiB (78%)
Writing library                  : XviD 1.2.1 (UTC 2008-12-04)

Audio
ID                               : 1
Format                           : AC-3
Format/Info                      : Audio Coding 3
Mode extension                   : CM (complete main)
Codec ID                         : 2000
Duration                         : 2h 16mn
Bit rate mode                    : Constant
Bit rate                         : 448 Kbps
Channel(s)                       : 6 channels
Channel positions                : Front: L C R, Side: L R, LFE
Sampling rate                    : 48.0 KHz
Stream size                      : 439 MiB (21%)
Alignment                        : Aligned on interleaves
Interleave, duration             : 96 ms (2.88 video frames)
Interleave, preload duration     : 96 ms



专辑曲目

01. Opening
02. Shout At The Devil
03. Too Fast For Love
04. Ten Seconds To Love
05. Red Hot
06. On With The Show
07. Too Young To Fall In Love
08. Looks That Kill
09. Louder Than Hell
10. Live Wire
11. Girls Girls Girls
12. Wild Side
13. Don't Go Away Mad (Just Go Away)
14. Primal Scream
15. Glitter
16. Without You
17. Home Sweet Home
18. Nikki's Solo
19. Dr. Feelgood
20. Tommy's Solo
21. Same Ol' Situation
22. Tommy Cam
23. Sick Love Song
24. If I Die Tomorrow
25. Kickstart My Heart
26. Helter Skelter
27. Anarchy In the UK

正在读取……

这里是其它用户补充的资源(我也要补充):

暂无补充资源
正在加载,请稍等...

点击查看所有11网友评论

 

(?) [公告]留口水、评论相关规则 | [活动]每日签到 轻松领取电驴经验

    小贴士:
  1. 类似“顶”、“沙发”之类没有营养的文字,对勤劳贡献的楼主来说是令人沮丧的反馈信息。
  2. 提问之前请再仔细看一遍楼主的说明,或许是您遗漏了。
  3. 勿催片。请相信驴友们对分享是富有激情的,如果确有更新版本,您一定能搜索到。
  4. 请勿到处挖坑绊人、招贴广告。既占空间让人厌烦,又没人会搭理,于人于己都无利。
  5. 如果您发现自己的评论不见了,请参考以上4条。