v

您的位置:VeryCD动漫电视动画

动漫资源事务区


《功夫熊猫:非凡传奇》(Kung Fu Panda: Legends of Awesomeness)[2011年11月新番][T00NG0D+C_P][英语配音][英简繁字幕][更新第19/26集][HDTV]

  • 状态: 精华资源
  • 摘要:
    发行时间2011年9月19日
    语言英语
  • 时间: 2011/11/10 16:19:17 发布 | 2011/12/25 15:03:42 更新
  • 分类: 动漫  电视动画 

xslidian

精华资源: 21

全部资源: 23

相关: 分享到新浪微博   转播到腾讯微博   分享到开心网   分享到人人   分享到QQ空间   订阅本资源RSS更新   美味书签  subtitle
该内容尚未提供权利证明,无法提供下载。
中文名功夫熊猫:非凡传奇
英文名Kung Fu Panda: Legends of Awesomeness
别名功夫熊猫电视版
资源格式HDTV
版本[2011年11月新番][T00NG0D+C_P][英语配音][英简繁字幕][更新第19/26集]
发行时间2011年9月19日
地区美国
语言英语
简介

IPB Image

【首播时间】2011年9月19日/10月21日(试播)、11月7日(开播)——2011年11月新番
【字幕情况】暂无字幕/有志愿者制作双语外挂字幕


【内容介绍】
电视剧版《功夫熊猫》集中讲述了熊猫阿宝在成为“神龙大侠”不久后又面对的重重艰难考验,剧情将填补两部电影版《功夫熊猫》之间的空隙,人物设定将沿用电影版,“中国元素”仍将成为其亮点。此外,电视剧版《功夫熊猫》中将出现不少新角色,“他们大都是反派,功夫盖世,对阿宝造成不小的威胁。”(出自电驴大全)

【剧集列表】
S01E01 Scorpion's Sting
S01E02 The Princess and the Po
S01E03 Sticky Situation
S01E04 Chain Reaction
S01E05 Fluttering Finger Mindslip
S01E06 Good Croc Bad Croc
S01E07 Hometown Hero
S01E08 Jailhouse Panda
S01E09 Owl Be Back
S01E10 Bad Po
S01E11 Sight for Sore Eyes
S01E12 Rhino's Revenge
S01E13 Master Ping
S01E14 Ghost of Oogway
S01E15 The Kung Fu Kid
S01E16 Ladies of the Shade
S01E17 Big Bro Po
S01E18 Po Fans Out
S01E19 Challenge Day
S01E20 My Favorite Yao——12月30日播出

【官方网站】
http://www.nick.com/shows/kung-fu-panda-le...someness

【文件参数及截图预览】

代码
General
Complete name                    : D:\seeding\kfp\Kung.Fu.Panda.Legends.of.Awesomeness.S01E01.Scorpions.Sting.HDTV.AC3-5.1.XviD-T00NG0D.avi
Format                           : AVI
Format/Info                      : Audio Video Interleave
File size                        : 235 MiB
Duration                         : 23mn 27s
Overall bit rate                 : 1 400 Kbps
Writing application              : VirtualDubMod 1.5.10.2 (build 2540/release)
Writing library                  : VirtualDubMod build 2540/release

Video
ID                               : 0
Format                           : MPEG-4 Visual
Format profile                   : Advanced Simple@L5
Format settings, BVOP            : 2
Format settings, QPel            : No
Format settings, GMC             : No warppoints
Format settings, Matrix          : Default (H.263)
Muxing mode                      : Packed bitstream
Codec ID                         : XVID
Codec ID/Hint                    : XviD
Duration                         : 23mn 27s
Bit rate                         : 1 007 Kbps
Width                            : 704 pixels
Height                           : 396 pixels
Display aspect ratio             : 16:9
Frame rate                       : 23.976 fps
Color space                      : YUV
Chroma subsampling               : 4:2:0
Bit depth                        : 8 bits
Scan type                        : Progressive
Compression mode                 : Lossy
Bits/(Pixel*Frame)               : 0.151
Stream size                      : 169 MiB (72%)
Writing library                  : XviD 1.1.2 (UTC 2006-11-01)

Audio
ID                               : 1
Format                           : AC-3
Format/Info                      : Audio Coding 3
Mode extension                   : CM (complete main)
Codec ID                         : 2000
Duration                         : 23mn 27s
Bit rate mode                    : Constant
Bit rate                         : 384 Kbps
Channel(s)                       : 6 channels
Channel positions                : Front: L C R, Side: L R, LFE
Sampling rate                    : 48.0 KHz
Bit depth                        : 16 bits
Compression mode                 : Lossy
Stream size                      : 64.4 MiB (27%)
Alignment                        : Split accross interleaves
Interleave, duration             : 42 ms (1.00 video frame)
Interleave, preload duration     : 500 ms

IPB Image

正在读取……

这里是其它用户补充的资源(我也要补充):

暂无补充资源
正在加载,请稍等...

点击查看所有24网友评论

 

(?) [公告]留口水、评论相关规则 | [活动]每日签到 轻松领取电驴经验

    小贴士:
  1. 类似“顶”、“沙发”之类没有营养的文字,对勤劳贡献的楼主来说是令人沮丧的反馈信息。
  2. 提问之前请再仔细看一遍楼主的说明,或许是您遗漏了。
  3. 勿催片。请相信驴友们对分享是富有激情的,如果确有更新版本,您一定能搜索到。
  4. 请勿到处挖坑绊人、招贴广告。既占空间让人厌烦,又没人会搭理,于人于己都无利。
  5. 如果您发现自己的评论不见了,请参考以上4条。