v

您的位置:VeryCD动漫电视动画

动漫资源事务区


《功夫熊猫:非凡传奇》(Kung Fu Panda: Legends of Awesomeness)[GSN+C_P][英语配音][英简繁字幕][更新第10/26集][720P]

  • 状态: 精华资源
  • 摘要:
    发行时间2011年9月19日
    语言英语
  • 时间: 2011/11/10 15:26:24 发布 | 2011/12/25 17:09:48 更新
  • 分类: 动漫  电视动画 

xslidian

精华资源: 15

全部资源: 17

相关: 分享到新浪微博   转播到腾讯微博   分享到开心网   分享到人人   分享到QQ空间   订阅本资源RSS更新   美味书签  subtitle
该内容尚未提供权利证明,无法提供下载。
中文名功夫熊猫:非凡传奇
英文名Kung Fu Panda: Legends of Awesomeness
别名功夫熊猫电视版
资源格式720P
版本[GSN+C_P][英语配音][英简繁字幕][更新第10/26集]
发行时间2011年9月19日
地区美国
语言英语
简介

IPB Image

【首播时间】2011年9月19日/10月21日(试播)、11月7日(开播)——2011年11月新番
【字幕情况】内嵌英文、外挂中文


【内容介绍】
电视剧版《功夫熊猫》集中讲述了熊猫阿宝在成为“神龙大侠”不久后又面对的重重艰难考验,剧情将填补两部电影版《功夫熊猫》之间的空隙,人物设定将沿用电影版,“中国元素”仍将成为其亮点。此外,电视剧版《功夫熊猫》中将出现不少新角色,“他们大都是反派,功夫盖世,对阿宝造成不小的威胁。”(出自电驴大全)

【剧集列表】
S01E01 Scorpion's Sting
S01E02 The Princess and the Po
S01E03 Sticky Situation
S01E04 Chain Reaction
S01E05 Fluttering Finger Mindslip
S01E06 Good Croc Bad Croc
S01E07 Hometown Hero
S01E08 Jailhouse Panda
S01E09 Owl Be Back
S01E10 Bad Po
S01E11 Sight for Sore Eyes
S01E12 Rhino's Revenge
S01E13 Master Ping
S01E14 Ghost of Oogway
S01E15 The Kung Fu Kid
S01E16 Ladies of the Shade
S01E17 Big Bro Po
——待续——

【官方网站】
http://www.nick.com/shows/kung-fu-panda-le...someness

【文件参数及截图预览】

代码
General
Unique ID                        : 206252438892132646940669879223946307301 (0x9B2AC65A6036310C9BB66AD630ABE6E5)
Complete name                    : D:\seeding\kfp\Kung.Fu.Panda.Legends.of.Awesomeness.S01E01.Scorpions.Sting.720p.HDTV.x264.GSN.mkv
Format                           : Matroska
File size                        : 721 MiB
Duration                         : 23mn 27s
Overall bit rate                 : 4 297 Kbps
Movie name                       : Kung.Fu.Panda.Legends.of.Awesomeness.S01E01.Scorpions.Sting.720p.HDTV.x264.GSN.mkv 6211
Encoded date                     : UTC 2011-09-28 16:32:32
Writing application              : mkvmerge v4.3.0 ('Escape from the Island') built on Sep  5 2010 10:30:51
Writing library                  : libebml v1.0.0 + libmatroska v1.0.0

Video
ID                               : 1
Format                           : AVC
Format/Info                      : Advanced Video Codec
Format profile                   : High@L4.1
Format settings, CABAC           : Yes
Format settings, ReFrames        : 9 frames
Format settings, GOP             : M=2, N=4
Codec ID                         : V_MPEG4/ISO/AVC
Duration                         : 23mn 27s
Bit rate                         : 3 828 Kbps
Width                            : 1 280 pixels
Height                           : 720 pixels
Display aspect ratio             : 16:9
Frame rate                       : 23.976 fps
Color space                      : YUV
Chroma subsampling               : 4:2:0
Bit depth                        : 8 bits
Scan type                        : Progressive
Bits/(Pixel*Frame)               : 0.173
Stream size                      : 642 MiB (89%)
Title                            : Legends of Awesomeness
Writing library                  : x264 core 116 r2037 f8ebd4a
Encoding settings                : cabac=1 / ref=9 / deblock=1:1:1 / analyse=0x3:0x113 / me=umh / subme=9 / psy=1 / psy_rd=0.40:0.00 / mixed_ref=1 / me_range=16 / chroma_me=1 / trellis=1 / 8x8dct=1 / cqm=0 / deadzone=21,11 / fast_pskip=1 / chroma_qp_offset=-2 / threads=3 / sliced_threads=0 / nr=0 / decimate=1 / interlaced=0 / bluray_compat=0 / constrained_intra=0 / bframes=7 / b_pyramid=2 / b_adapt=2 / b_bias=0 / direct=3 / weightb=1 / open_gop=0 / weightp=2 / keyint=250 / keyint_min=23 / scenecut=40 / intra_refresh=0 / rc_lookahead=50 / rc=crf / mbtree=1 / crf=15.0 / qcomp=0.60 / qpmin=0 / qpmax=69 / qpstep=4 / ip_ratio=1.40 / aq=1:0.60
Language                         : English

Audio
ID                               : 2
Format                           : AC-3
Format/Info                      : Audio Coding 3
Mode extension                   : CM (complete main)
Codec ID                         : A_AC3
Duration                         : 23mn 27s
Bit rate mode                    : Constant
Bit rate                         : 384 Kbps
Channel(s)                       : 6 channels
Channel positions                : Front: L C R, Side: L R, LFE
Sampling rate                    : 48.0 KHz
Bit depth                        : 16 bits
Compression mode                 : Lossy
Delay relative to video          : 32ms
Stream size                      : 64.4 MiB (9%)
Language                         : English

Text
ID                               : 3
Format                           : UTF-8
Codec ID                         : S_TEXT/UTF8
Codec ID/Info                    : UTF-8 Plain Text
Language                         : English

IPB Image
IPB Image

正在读取……

这里是其它用户补充的资源(我也要补充):

暂无补充资源
正在加载,请稍等...

点击查看所有41网友评论

 

(?) [公告]留口水、评论相关规则 | [活动]每日签到 轻松领取电驴经验

    小贴士:
  1. 类似“顶”、“沙发”之类没有营养的文字,对勤劳贡献的楼主来说是令人沮丧的反馈信息。
  2. 提问之前请再仔细看一遍楼主的说明,或许是您遗漏了。
  3. 勿催片。请相信驴友们对分享是富有激情的,如果确有更新版本,您一定能搜索到。
  4. 请勿到处挖坑绊人、招贴广告。既占空间让人厌烦,又没人会搭理,于人于己都无利。
  5. 如果您发现自己的评论不见了,请参考以上4条。