v

您的位置:VeryCD音乐新世纪音乐

音乐资源事务区


Bo Hansson -《指环王》(The Lord Of The Rings)[FLAC]

  • 状态: 精华资源
  • 摘要:
    发行时间2000年
  • 时间: 2011/11/10 13:55:11 发布 | 2011/11/10 17:14:29 更新
  • 分类: 音乐  新世纪音乐 

MTina

精华资源: 3862

全部资源: 3863

相关: 分享到新浪微博   转播到腾讯微博   分享到开心网   分享到人人   分享到QQ空间   订阅本资源RSS更新   美味书签  subtitle
该内容尚未提供权利证明,无法提供下载。
专辑英文名The Lord Of The Rings
专辑中文名指环王
艺术家Bo Hansson
资源格式FLAC
发行时间2000年
地区瑞典
语言英语,瑞典语
简介

IPB Image

唱片简介:

Bo Hansson 是瑞典著名的电子键盘手,也是世界上最早用电子琴创作 New Age 音乐的先锋者之一。1976 年他与 Jan-Eric Persson 创立了唱片公司 Opus3 Records,生产公司名为 Firma Ljudinspelning ,并作为高保真音响硬件生产厂商 Rauna 的子公司,录制和发行了不少古典、爵士和新世纪等类型的唱片。

Label:Silence Records – SRSCD 3600
Format:CD, Album, Reissue
Country:Sweden
Released:2000
Genre:Rock
Style:Prog Rock

乐队组成:
Drums, Congas – Rune Carlsson
Flute – Sten Bergman
Organ [Hammond], Guitar, Synthesizer [Moog], Bass, Other [Small Sounds], Composed By – Bo Hansson
Producer – Anders Lind, Bo Hansson
Recorded By – Anders Lind, Bo Hansson
Remix – Anders Lind
Saxophone – Gunnar Bergsten


引用
Format : FLAC
Format/Info : Free Lossless Audio Codec
File size : 249 MiB
Duration : 47mn 33s
Overall bit rate : 731 Kbps
Album replay gain : -5.04 dB
Album replay gain peak : 0.968994
Album : Eigene Dateien
Track name : Lord Of The Rings
Performer : Bo Hansson
Comment : Encoded by FLAC v1.1.4a with FLAC Frontend v1.7.1
REPLAYGAIN_REFERENCE_LOUDNESS : 89.0 dB

Audio
Format : FLAC
Format/Info : Free Lossless Audio Codec
Duration : 47mn 33s
Bit rate mode : Variable
Bit rate : 731 Kbps
Channel(s) : 2 channels
Sampling rate : 44.1 KHz
Bit depth : 16 bits
Replay gain : -5.04 dB
Replay gain peak : 0.968994
Stream size : 249 MiB (100%)
Writing library : libFLAC 1.1.4 (UTC 2007-02-13)


代码
Exact Audio Copy V0.99 prebeta 3 from 28. July 2007

EAC Auslese-Logdatei vom 9. Februar 2009, 15:30

Bo Hansson / Lord Of The Rings

Benutztes Laufwerk : HL-DT-STDVD-RAM GSA-H58N Adapter: 1 ID: 0

Lesemodus : Burst

Leseoffset Korrektur : 102
Überlesen in das Lead-In und Lead-Out : Nein
Fülle fehlende Offsetsample mit Stille auf : Ja
Lösche führende und nachfolgende stille Blöcke : Nein
Null Samples gehen in CRC Berechnungen ein : Nein
Benutzte Schnittstelle : Natürliche Win32 Schnittstelle für Win NT/2000/XP

Benutztes Ausgabeformat : Interne WAV Routinen
Sampleformat : 44.100 Hz; 16 Bit; Stereo


TOC der ausgelesenen CD

Track | Start | Länge | Startsektor | Endsektor
-------------------------------------------------------
1 | 0:00.00 | 3:30.60 | 0 | 15809
2 | 3:30.60 | 3:43.55 | 15810 | 32589
3 | 7:14.40 | 2:31.05 | 32590 | 43919
4 | 9:45.45 | 4:07.62 | 43920 | 62506
5 | 13:53.32 | 4:42.63 | 62507 | 83719
6 | 18:36.20 | 1:12.55 | 83720 | 89174
7 | 19:49.00 | 4:00.60 | 89175 | 107234
8 | 23:49.60 | 0:50.30 | 107235 | 111014
9 | 24:40.15 | 4:00.15 | 111015 | 129029
10 | 28:40.30 | 1:58.40 | 129030 | 137919
11 | 30:38.70 | 2:56.05 | 137920 | 151124
12 | 33:35.00 | 5:07.62 | 151125 | 174211
13 | 38:42.62 | 8:50.20 | 174212 | 213981


Bereichsstatus und Fehler

Gewählter Bereich

Dateiname C:\Dokumente und Einstellungen\Ralf N\Eigene Dateien\Bo Hansson - Lord Of The Rings.wav

Timing Problem 0:00:17

Spitzenpegel 96.9 %
Kopie CRC 7C1F4D73
Kopie beendet

Keine Fehler aufgetreten


AccurateRip Übersicht

Track 1 akkurat gelesen (Zuversicht 4) [3D2A0AB6]
Track 2 akkurat gelesen (Zuversicht 4) [28BBC5B2]
Track 3 akkurat gelesen (Zuversicht 4) [71449245]
Track 4 akkurat gelesen (Zuversicht 4) [F2EB6C9E]
Track 5 akkurat gelesen (Zuversicht 4) [E676D25F]
Track 6 akkurat gelesen (Zuversicht 4) [5767D267]
Track 7 akkurat gelesen (Zuversicht 4) [714CE34F]
Track 8 akkurat gelesen (Zuversicht 4) [48209131]
Track 9 akkurat gelesen (Zuversicht 4) [3D70FB2E]
Track 10 akkurat gelesen (Zuversicht 4) [2FDBC279]
Track 11 akkurat gelesen (Zuversicht 4) [86424167]
Track 12 akkurat gelesen (Zuversicht 4) [F9D262CC]
Track 13 akkurat gelesen (Zuversicht 4) [DDA99419]

Alle Tracks wurden akkurat gelesen

Ende des Statusreports


IPB Image

IPB Image



专辑曲目

01.Leaving Shire[Första Vandringen]
02.The Old Forest & Tom Bombadil [Den Gamla Skogen & Tom Bombadil ]
03.Fog On The Barrow-Downs[I Skuggornas Rike]
04.The Black Riders & Flight On The Ford [De Svarta Ryttarna & Flykten Från Vadstället]
05.At The House Of Elrond & The Ring Goes South [I Elronds Hus & Ringen Vandrar Söderut]
06.A Journey In The Dark [En Vandring I Mörker]
07.Lothlòrien[Lothlòrien]
08.Shadowfax[Skuggfaxe]
09.The Horns Of Rohan & The Battle Of The Pelennor Fields [Rohans Horn & Slaget Vid Pelennors Slätter]
10.Dreams In The House Of Healing [Drömmar I Läkandets Hus]
11.Homeward Bound & The Scouring Of The Shire [Hemfärden & Fylke Rensas]
12.The Grey Havens [De Grå Hamnarna ]
13.Early Scetches From Middle Earth [Tidiga Skisser Från Midgård]

正在读取……

这里是其它用户补充的资源(我也要补充):

暂无补充资源
正在加载,请稍等...

点击查看所有20网友评论

 

(?) [公告]留口水、评论相关规则 | [活动]每日签到 轻松领取电驴经验

    小贴士:
  1. 类似“顶”、“沙发”之类没有营养的文字,对勤劳贡献的楼主来说是令人沮丧的反馈信息。
  2. 提问之前请再仔细看一遍楼主的说明,或许是您遗漏了。
  3. 勿催片。请相信驴友们对分享是富有激情的,如果确有更新版本,您一定能搜索到。
  4. 请勿到处挖坑绊人、招贴广告。既占空间让人厌烦,又没人会搭理,于人于己都无利。
  5. 如果您发现自己的评论不见了,请参考以上4条。