v

您的位置:VeryCD音乐演唱会

音乐资源事务区


Celtic Woman -《A Christmas Celebration Live From Dublin》[DVDRip]

  • 状态: 精华资源
  • 摘要:
    发行时间2007年
    语言英语
  • 时间: 2011/11/07 21:04:12 发布 | 2011/11/08 20:47:33 更新
  • 分类: 音乐  演唱会 

MTina

精华资源: 3862

全部资源: 3863

相关: 分享到新浪微博   转播到腾讯微博   分享到开心网   分享到人人   分享到QQ空间   订阅本资源RSS更新   美味书签  subtitle
该内容尚未提供权利证明,无法提供下载。
专辑中文名A Christmas Celebration Live From Dublin
别名天使女伶圣诞节庆祝都柏林现场演出实况
歌手Celtic Woman
资源格式DVDRip
发行时间2007年
语言英语
简介

IPB Image

内容介绍:

天使女伶Celtic Woman
温暖时光-都柏林现场演出实况 A Christmas Celebration – Live From Dublin

结合剧作风格演出与恩雅式爱尔兰系美声的五人女子组合,包括四名女声与一名小提琴手,「天使女伶Celtic Woman」在2005年首张专辑初问世即创下Billboard告示牌世界音乐榜80週冠军纪录,CD在全美销售已突破金唱片(500,000张)。今年五月,他们更应丰田汽车之邀,前往日本录下〈Beyond The Sea〉一曲,以作为丰田Estima Hybrid日本区广告的配乐,以他们的歌声来彰显这台高级车种的质感,也显示他们在日本受到喜爱的程度。

「天使女伶Celtic Woman」是由身兼音乐总监、指挥、作曲及编曲者四项身份、曾任「大河之舞」的音乐总监大卫.唐恩所领军,以四位爱尔兰女歌手及一位小提琴手所组成,五人在加入团体前,都以演唱居尔特歌曲闻名,她们融合莎拉布莱曼、美声男伶、恩雅、居尔特男高音、易希、克兰纳德等人特色,结合了新世纪、古典、传统居尔特乐风与大河之舞、舞王及火焰之舞等的音乐风格。将恩雅式演唱与充满气势的大型管弦乐团、合唱团和节奏感强烈的鼓声作对比,在极度柔美和震撼的气势中,让人感受到澎湃汹涌的声浪迎面袭来,却又能在柔美的歌声中得到抚慰。

这份《温暖时光》CD+DVD的发行,收录她们2006年的专辑《圣诞祝福》和2007年最新的《都柏林现场》DVD。其中2006年的圣诞专辑在美国上市不到一个月,即在十月底登上告示牌世界音乐榜第一名。专辑中,他们将原本的居尔特乐风压淡,只让居尔特竖琴、小提琴以及大河舞那种特有的鼓声和大型合唱团、管弦乐团偶尔出现,藉以强调他们的演唱特色:美丽的和声和个人甜美的嗓音上,让我们充份地享受了像是由恩雅加克兰纳德共同演唱的优美圣诞专辑,片中他们选唱的都是知名动听的圣诞歌曲,透过让人讚嘆的录音,呈现出一张足以让音响迷都惊豔的发烧圣诞专辑。至於DVD则收录了她们在2007年七月间於都柏林现场演唱18首圣诞歌曲的录影画面,当中除了演唱CD专辑中的歌曲外,更加收了三首CD中没有收录的圣诞歌曲。这份现场录影,让我们临场感受到天使女伶扎实的演唱和演奏功力。这场演唱会当时,天使女伶们刚结束在美国长达五个月的巡迴演出行程,回到都柏林的根据地,为了这场演唱会,五位天使女伶的歌手和乐手穿起美丽的晚礼服,以完美无瑕的歌声,让我们听到这样的声音不是来自录音室的剪接,而是真的来自拥有美好歌喉的她们。演唱会上的歌曲虽然与CD有15首相同,但採用DTS5.1环场音效录制的现场效果,却远比CD更有深度和临场感,再加上演唱会舞台充满气氛的灯光、服装和布景设计,带给人一种温馨、甜美的视觉感受,雪白的树枝、圣诞灯光配合著一首又一首的圣诞名曲出现,让我们看著每一首歌由不同天使女伶成员们组合呈现,更让人感动於她们优美的合声和嗓音。

凯尔特女人组合(Celtic Woman)是流行乐史上实力最强大的组合之一,组合中每个人都具备独唱的星级实力和个唱音乐会的水准。这样的强强组合,在现在商业和经济准则为前提的社会中是难得一见的。 “凯尔特女人”中所有成员,都是有过个人世界畅销专辑的歌星,她们不是象通常的组合那样,是通过组合而成名的。她们本身都是功成名就的歌坛巨星,是她们作为个体的优越,成就了“凯尔特女人”组合的魅力和声望!凯尔特女人组合是由身兼音乐总监、指挥、作曲及编曲者四项身份、曾任《大河之舞》的音乐总监大卫唐恩(David Downes)所领军,以四位爱尔兰歌手克萝伊(Chloe)、莉莎(Lisa)、梅芙(Meav)、欧拉(Orla)及一位小提琴手玛莉(Mairead),还有06年刚加入的新西兰籍巨星Hayley Westenra所组成的超级团体,她们融合了莎拉布莱曼、美声男伶、恩雅、居尔特男高音、易希等人特色,结合了新世纪、古典、传统凯尔特乐风与爱尔兰一派如大河之舞(Riverdance)、舞王(Lord of the Dance)及(Feet of Flames)火焰之舞等的音乐戏剧式演出风格,为全球乐迷创造了视听双效的全新选择。

  “Celtic Woman”打破了普罗大众对于歌曲诠释的刻版印象,从这张全新专辑中便可清楚体会。莎拉布莱曼和罗素华生都演唱过的Nella Fantasia(电影“教会”改编)、曾为乔许葛洛班及西城男孩等重新诠释、近两年最畅销的励志歌曲You Raise Me Up、电影“魔戒”插曲May It Be(恩雅原唱)、迪士尼动画“钟楼怪人”的主题曲Someday等名作都以极美的人声诠释与交响编排搭配,展现了剧作般的壮阔氛围;让恩雅一举成名的Orinoco Flow、克兰纳德家族乐团UK Top 20的Harry's Game、古典圣乐Ave Maria、爱尔兰民谣Danny Boy与Isle Of Inisfree等也充满了正宗爱尔兰一派的神秘幽美与淡淡愁绪,而原创如The Butterfly则延续了大河之舞的热闹欢欣。主打歌Last Rose Of Summer / Walking In The Air是克萝伊名闻全球的个人专辑名曲,在经过全新铺陈后的版本更是美妙无比。

  简言之,“Celtic Woman”便是美声音乐的进化,且让我们一同聆听这人声的自然之美。
  * Deirdre Shannon在2004年以救火队员的身份代替怀孕的Meav,且Meav于2007年离开Cletic Woman,其位置由Lynn Hilary代替, Alex Sharpe在2008年代替休产期间的Lisa,A New Journey中新西兰籍巨星Hayley Westenra也参加了演出。Alex Sharpe与Lynn Hilary现均已退出,由Lisa Lambe代替。

  Celtic Woman将于2012年1月6日至10日在北京、上海和广州举办Songs From The Heart演唱会。

  Celtic Woman新专辑BELIEVE将于10月26日发布宣传片。BELIEVE在美国Atlanta Fox Theater录制。

IPB Image

IPB Image

代码
General
Complete name : Celtic.Woman.A.Christmas.Celebration.Live.from.Dublin.2007.DVDRip-Arkhante.avi
Format : AVI
Format/Info : Audio Video Interleave
File size : 700 MiB
Duration : 1h 5mn
Overall bit rate : 1 492 Kbps
Writing application : VirtualDubMod 1.5.4.1 (build 2178/release)
Writing library : VirtualDubMod build 2178/release

Video
ID : 0
Format : MPEG-4 Visual
Format profile : Advanced Simple@L5
Format settings, BVOP : Yes
Format settings, QPel : No
Format settings, GMC : No warppoints
Format settings, Matrix : Custom
Codec ID : XVID
Codec ID/Hint : XviD
Duration : 1h 5mn
Bit rate : 1 356 Kbps
Width : 640 pixels
Height : 368 pixels
Display aspect ratio : 16:9
Frame rate : 29.970 fps
Resolution : 8 bits
Colorimetry : 4:2:0
Scan type : Progressive
Bits/(Pixel*Frame) : 0.192
Stream size : 636 MiB (91%)
Writing library : XviD 1.2.1 (UTC 2008-12-04)

Audio
ID : 1
Format : MPEG Audio
Format version : Version 1
Format profile : Layer 3
Mode : Joint stereo
Format_Settings_ModeExtension : MS Stereo
Codec ID : 55
Codec ID/Hint : MP3
Duration : 1h 5mn
Bit rate mode : Constant
Bit rate : 128 Kbps
Channel(s) : 2 channels
Sampling rate : 48.0 KHz
Stream size : 59.9 MiB (9%)
Alignment : Aligned on interleaves
Interleave, duration : 67 ms (2.00 video frames)
Interleave, preload duration : 504 ms
Writing library : LAME3.98r
Encoding settings : -m j -V 4 -q 2 -lowpass 17 -b 128
Language : English



专辑曲目

01. Carol of the Bells
02. Silent Night
03. White Christmas
04. Away in a Manger
05. Ding Dong Merrily on High
06. The Little Drummer Boy
07. The Christmas Song
08. In the Bleak Midwinter/The First Noël
09. The Wexford Carol
10. Christmas Pipes
11. O Holy Night
12. Panis Angelicus
13. Green the Whole Year Round
14. Have Yourself a Merry Little Christmas
15. Don Oíche Úd I Mbeithil (That Night in Bethlehem)
16. O Come All Ye Faithful
17. Let It Snow!
18. Christmas Pipes Encore

正在读取……

这里是其它用户补充的资源(我也要补充):

暂无补充资源
正在加载,请稍等...

点击查看所有11网友评论

 

(?) [公告]留口水、评论相关规则 | [活动]每日签到 轻松领取电驴经验

    小贴士:
  1. 类似“顶”、“沙发”之类没有营养的文字,对勤劳贡献的楼主来说是令人沮丧的反馈信息。
  2. 提问之前请再仔细看一遍楼主的说明,或许是您遗漏了。
  3. 勿催片。请相信驴友们对分享是富有激情的,如果确有更新版本,您一定能搜索到。
  4. 请勿到处挖坑绊人、招贴广告。既占空间让人厌烦,又没人会搭理,于人于己都无利。
  5. 如果您发现自己的评论不见了,请参考以上4条。