v

您的位置:VeryCD动漫电视动画

动漫资源事务区


《史瑞克的万圣游戏》(Scared Shrekless)[全一集][576x320][DVDRip]

  • 状态: 精华资源
  • 摘要:
    发行时间2010年
    语言英语
  • 时间: 2011/10/29 14:46:30 发布 | 2011/10/29 18:35:16 更新
  • 分类: 动漫  电视动画 

life_is_good

精华资源: 6571

全部资源: 7301

相关: 分享到新浪微博   转播到腾讯微博   分享到开心网   分享到人人   分享到QQ空间   订阅本资源RSS更新   美味书签  subtitle
该内容尚未提供权利证明,无法提供下载。
中文名史瑞克的万圣游戏
英文名Scared Shrekless
资源格式DVDRip
版本[全一集][576x320]
发行时间2010年
地区美国
语言英语
简介

IPB Image

【首播时间】 2010年
【字幕制作】 暂无


【内容介绍】

 NBC万圣特别动画节目《Scared Shrekless》讲述了万圣夜时怪物史瑞克和他的朋友们在法尔奎德领主闹鬼城堡进行的一场既有趣又恐怖的游戏。

【STAFF】

导演:加里·特洛斯达勒 Gary Trousdale
许诚毅 Raman Hui ....(co-director)

【CAST】

麦克·梅尔斯 Mike Myers ....Shrek (voice)
卡梅隆·迪亚茨 Cameron Diaz ....Princess Fiona (voice)
安东尼奥·班德拉斯 Antonio Banderas ....Puss in Boots (voice)
Kristen Schaal ....Sugar (voice)
Dean Edwards ....Donkey (voice)
Cody Cameron ....Pinocchio / Three Pigs (voice)
Christopher Knights ....Blind Mice (voice)
康拉德·弗农 Conrad Vernon ....Gingerbread Man / Muffin Man (voice)
阿伦·沃纳 Aron Warner ....Wolf (voice)
Patty Cornell ....Creepy Clockwork Chorus (voice)
Susan Fitzer ....Creepy Clockwork Chorus (voice)
Sean Bishop ....Geppetto / Prince Charming / The Cricket / Dwarves / Waffle (voice)
Miles Christopher Bakshi ....Ogre Baby (voice)
Nina Zoe Bakshi ....Ogre Baby (voice)
Louis Gabriel ....Teenager #1 (voice) (as Louis Gabriel Basso III)
戴文·沃克海瑟 Devon Werkheiser ....Teenager #2 / Teenager #3 (voice)

【视频截图】

IPB Image

IPB Image

IPB Image

IPB Image

【编码参数】

代码
   ARTiCHOKE  
                                          
SPRiNTER proudly presents...                            

Scared.Shrekless.2010.DVDRip.XviD-SPRiNTER
http://www.imdb.com/title/tt1725156/
Date: 2011.10              
              
Release notes              
Enjoy!
        
Greetings
NTX FiCO HNR CiNEFiLE AEN HUMANiSM TASTE 0MNiDVD

Details

Format                           : AVI
Format/Info                      : Audio Video Interleave
File size                        : 175 MiB
Duration                         : 25mn 31s
Overall bit rate mode            : Variable
Overall bit rate                 : 959 Kbps
Writing application              : VirtualDubMod 1.5.10.2 (build 2540/release)
Writing library                  : VirtualDubMod build 2540/release

Video
ID                               : 0
Format                           : MPEG-4 Visual
Format profile                   : Advanced Simple@L5
Format settings, BVOP            : 2
Format settings, QPel            : No
Format settings, GMC             : No warppoints
Format settings, Matrix          : Default (H.263)
Codec ID                         : XVID
Codec ID/Hint                    : XviD
Duration                         : 25mn 31s
Bit rate                         : 812 Kbps
Width                            : 576 pixels
Height                           : 320 pixels
Display aspect ratio             : 16:9
Frame rate                       : 23.976 fps
Color space                      : YUV
Chroma subsampling               : 4:2:0
Bit depth                        : 8 bits
Scan type                        : Progressive
Compression mode                 : Lossy
Bits/(Pixel*Frame)               : 0.184
Stream size                      : 148 MiB (85%)
Writing library                  : XviD 61

Audio
ID                               : 1
Format                           : MPEG Audio
Format version                   : Version 1
Format profile                   : Layer 3
Mode                             : Joint stereo
Mode extension                   : MS Stereo
Codec ID                         : 55
Codec ID/Hint                    : MP3
Duration                         : 25mn 30s
Bit rate mode                    : Variable
Bit rate                         : 134 Kbps
Minimum bit rate                 : 128 Kbps
Channel(s)                       : 2 channels
Sampling rate                    : 48.0 KHz
Compression mode                 : Lossy
Stream size                      : 24.5 MiB (14%)
Alignment                        : Aligned on interleaves
Interleave, duration             : 24 ms (0.58 video frame)
Interleave, preload duration     : 137 ms
Writing library                  : LAME3.95
Encoding settings                : -m j -V 4 -q 3 -lowpass 18 --vbr-old -b 128

正在读取……

这里是其它用户补充的资源(我也要补充):

暂无补充资源
正在加载,请稍等...

点击查看所有6网友评论

 

(?) [公告]留口水、评论相关规则 | [活动]每日签到 轻松领取电驴经验

    小贴士:
  1. 类似“顶”、“沙发”之类没有营养的文字,对勤劳贡献的楼主来说是令人沮丧的反馈信息。
  2. 提问之前请再仔细看一遍楼主的说明,或许是您遗漏了。
  3. 勿催片。请相信驴友们对分享是富有激情的,如果确有更新版本,您一定能搜索到。
  4. 请勿到处挖坑绊人、招贴广告。既占空间让人厌烦,又没人会搭理,于人于己都无利。
  5. 如果您发现自己的评论不见了,请参考以上4条。