v

您的位置:VeryCD动漫剧场动画

动漫资源事务区


《史酷比:鬼龙传说》(Scooby-Doo! Legend of the Phantosaur)[全一集][720x400][DVDRip]

  • 状态: 精华资源
  • 摘要:
    发行时间2011年
    语言英语
  • 时间: 2011/10/24 21:14:11 发布 | 2011/10/25 15:06:16 更新
  • 分类: 动漫  剧场动画 

life_is_good

精华资源: 6571

全部资源: 7301

相关: 分享到新浪微博   转播到腾讯微博   分享到开心网   分享到人人   分享到QQ空间   订阅本资源RSS更新   美味书签  subtitle
该内容尚未提供权利证明,无法提供下载。
中文名史酷比:鬼龙传说
英文名Scooby-Doo! Legend of the Phantosaur
资源格式DVDRip
版本[全一集][720x400]
发行时间2011年
地区美国
语言英语
简介

IPB Image

【首播时间】 2011年
【字幕制作】 暂无


【内容介绍】

  史酷比和他的朋友们在一个又温泉的地方度假。但在这个极度放松的温泉里,发生了一个史前恐慌的事。史酷比和他的朋友们发现的可怕鬼龙。具说这是一个古老的传说。在神密地沙漠洞穴中为了保护宝藏。而设计的魔咒。史酷比为了保护这些宝藏不被那些五颜六色的犯罪嫌疑人抢走。他充当英雄的角色。对那些贪婪的企业投资者和过度热心的科学家们来说,史酷比是一个障碍,想出一切办法要除掉他。他们成功了吗?还是史酷比成了英雄?

【STAFF】

导演:Ethan Spaulding

【CAST】

Frank Welker ...Scooby-Doo / Fred Jones / Bikers (voice)
Mindy Cohn ...Velma Dinkley (voice)
Grey DeLisle ...Daphne Blake (voice)
Matthew Lillard ...Shaggy Rogers / Shaky Joe (voice)
Cathy Cavadini ... Faith (voice)
Sumalee Montano ... (voice)
John Di Maggio ... Friz / GPS / Bikers (voice)
Vyvan Pham ... Emily (voice)
Michael Gough ... Mr. Babbit / Blair / Grad Student #1 / Bikers (voice)
Matthew Gray Gubler ... Winsor (voice)
Finola Hughes ... Professor Svankmajer (voice)
Colleen O'Shaughnessey ... Cleo (voice)
Maulik Pancholy ... Doctor (voice)
Kevin Michael Richardson ... Tex / Cop #2 / Grad Student #3 / Bikers (voice)
Fred Willard ... Mr. Hubley (voice)

【视频截图】

IPB Image

IPB Image

IPB Image

IPB Image

【编码参数】

代码
 General
Complete name : Scooby.Doo.Legend.of the.Phantosaur.2011.DVDRip.XVID.AC3.HQ.Hive-CM8.avi
Format : AVI
Format/Info : Audio Video Interleave
File size : 1.26 GiB
Duration : 1h 15mn
Overall bit rate : 2 402 Kbps
Writing application : Nandub v1.0rc2
Writing library : Nandub build 1853/release

Video
ID : 0
Format : MPEG-4 Visual
Format profile : Advanced Simple@L5
Format settings, BVOP : 1
Format settings, QPel : Yes
Format settings, GMC : No warppoints
Format settings, Matrix : Default (H.263)
Muxing mode : Packed bitstream
Codec ID : XVID
Codec ID/Hint : XviD
Duration : 1h 15mn
Bit rate : 2 008 Kbps
Width : 720 pixels
Height : 400 pixels
Display aspect ratio : 16:9
Frame rate : 23.976 fps
Color space : YUV
Chroma subsampling : 4:2:0
Bit depth : 8 bits
Scan type : Progressive
Compression mode : Lossy
Bits/(Pixel*Frame) : 0.291
Stream size : 1.06 GiB (84%)
Writing library : XviD 1.2.1 (UTC 2008-12-04)

Audio
ID : 1
Format : AC-3
Format/Info : Audio Coding 3
Mode extension : CM (complete main)
Codec ID : 2000
Duration : 1h 15mn
Bit rate mode : Constant
Bit rate : 384 Kbps
Channel(s) : 6 channels
Channel positions : Front: L C R, Side: L R, LFE
Sampling rate : 48.0 KHz
Bit depth : 16 bits
Compression mode : Lossy
Stream size : 207 MiB (16%)
Alignment : Split across interleaves
Interleave, duration : 42 ms (1.00 video frame)
Interleave, preload duration : 500 ms

正在读取……

这里是其它用户补充的资源(我也要补充):

暂无补充资源
正在加载,请稍等...

点击查看所有8网友评论

 

(?) [公告]留口水、评论相关规则 | [活动]每日签到 轻松领取电驴经验

    小贴士:
  1. 类似“顶”、“沙发”之类没有营养的文字,对勤劳贡献的楼主来说是令人沮丧的反馈信息。
  2. 提问之前请再仔细看一遍楼主的说明,或许是您遗漏了。
  3. 勿催片。请相信驴友们对分享是富有激情的,如果确有更新版本,您一定能搜索到。
  4. 请勿到处挖坑绊人、招贴广告。既占空间让人厌烦,又没人会搭理,于人于己都无利。
  5. 如果您发现自己的评论不见了,请参考以上4条。