v

您的位置:VeryCD音乐古典音乐

音乐资源事务区


Michel Schwalbé 米歇尔·施瓦尔贝 -《维瓦尔第-四季》(Antonio Vivaldi-Le Quanttro Stagioni)[FLAC]

  • 状态: 精华资源
  • 摘要:
    古典类型协奏曲
    发行时间2004年3月24日
  • 时间: 2011/09/25 23:22:35 发布 | 2011/09/27 13:12:40 更新
  • 分类: 音乐  古典音乐 

zhangjitom

精华资源: 1

全部资源: 1

相关: 分享到新浪微博   转播到腾讯微博   分享到开心网   分享到人人   分享到QQ空间   订阅本资源RSS更新   美味书签  subtitle
该内容尚未提供权利证明,无法提供下载。
专辑英文名Antonio Vivaldi-Le Quanttro Stagioni
专辑中文名维瓦尔第-四季
古典类型协奏曲
资源格式FLAC
发行时间2004年3月24日
地区日本
简介

IPB Image


作品:小提琴协奏曲《四季》(The Four Seasons )
作曲家:安东尼奥·维瓦尔第(Antonio Vivaldi)
演奏家:米歇尔·施瓦尔贝(Michel Schwalbé Violin)
指挥: 赫伯特·冯·卡拉扬 (Herbert von Karajan)
乐团:柏林爱乐乐团(Berliner Philharmoniker)
唱片公司:DG

专辑介绍:

卡拉扬时代的柏林爱乐首席小提琴演奏家,米歇尔·施瓦尔贝(Michel Schwalbé 1919-10-27)。米歇尔·施瓦尔贝是犹太人,面无表情的大屠杀幸存者,法国小提琴演奏家,在华沙莫里斯弗兰克尔音乐学院学习音乐,十二岁毕业。1933年,他申请继续在巴黎跟从乔治埃内斯库和皮埃尔蒙特科斯继续学习音乐,1938年毕业时获得了Sarasate奖。1940年,他逃往里昂,在那里他担任当地的交响乐团的小提琴手。1944年再次出逃,他躲进了一辆面包车中,逃过德国士兵的追查而后到了瑞士。在瑞士,他担任成立于1946年的罗曼德管弦乐团的小提琴手,并得到了冯·斯海弗宁恩的赏识。之后在日内瓦音乐学院任教,并作为小提琴手在琉森音乐节管弦乐团工作。当卡拉扬邀请米歇尔·施瓦尔贝来到西柏林的爱乐乐团后,米歇尔·施瓦尔贝感到了德国人的“和解举动”,而从1957年开始一直在乐团中演奏到1986退休。

卡拉扬1972年的《四季》录音无疑是一部成功之作,一直给人们带来了极大的享受。从整体来看是可以接受的。米歇尔·施瓦尔贝是一位令人印象深刻的独奏家,他的演奏清晰、准确,非常富于音乐感,音色上具有意大利式阳光明媚的特点。DG的廉价版Classikon的重新处理恢复了原始录音的坚实和宽广。
——企鹅激光唱片指南(The.Penguin.Guide.to.Compact.Discs) 1775页

十四行诗,英文版,汉译:
Vivaldi - The Four Seasons
维瓦尔第-四季
Spring

Spring has arrived, and merrily
the birds greet it with happy song;
and the brooks, at the blowing of the zephyrs,
with sweet murmuring rush along.

春临大地
众鸟欢唱
和风吹拂
溪流低语
Then, covering the air with a black cloak,
come lightning and thunder chosen to herald it;
then, when these are silent,
the little birds return anew to their melodious enchantment.

天空很快被黑幕遮蔽
雷鸣和闪电宣示暴风雨的前奏
And now in the pleasant flowery meadow,
to the soft murmur of boughs and grasses,
sleeps the goatherd with his faithful dog at his side.
风雨过境 鸟 花语再度
奏起和谐乐章
芳草鲜美的草原上
枝叶沙沙作响 喃喃低语
牧羊人安详地打盹
脚旁睡著夏日懒狗
To the festive sound of pastoral bagpipes,
Nymphs and shepherds dance under their beloved sky
At Spring's sparkling arrival.

当春临大地 仙女和牧羊人随著风笛愉悦的旋律
在他们的草原上 婆娑起舞

Summer

In the harsh season parched by the sun,
man and flock languish, and the pine withers;
the cuckoo raises its voice and as soon as it is heard,
the turtledove and goldfinch sing.

奄奄一息的人们和动物躺在
绘热无情的太阳底下
松树彷佛就要起火
杜鹃高歌著 加入斑鸠和金翅雀的行列中
Zephyr blows sweetly, but, in contest,
Boreas suddenly moves nearby;
and the shepherd boy weeps, for, in suspense,
he fears the violent storm and his own fate.

微风轻拂
但很快地大风卷起
若有风雨欲来之势
牧羊人被突如其来的狂风惊吓
担心著他的羊群以及自己的命运
His weary limbs are deprived of rest
by fear of lightning, and wild thunder,
and by the furious swarm of flies and bluebottles!

他开始忙著做风雨前的准备不安的心在灰暗的天色下
蚊蝇的嗡嗡作响下显得更加孤立无援
Unfortunately his fears are justified,
The sky fills with thunder and lightning,
and hail decapitates the proud stalks of grain.

终於 他担心的事发生了
雷电交加的狂风暴雨及冰雹
阻挠了他回家的路

Autumn

The peasant celebrates with dances and songs,
the pleasuers of the happy harvest;
and glowing with the wine of Bacchus,
many end their merrymaking with sleep.

农人唱歌跳舞
庆祝庄稼的丰收
酒神的琼浆玉液使
众人在欢愉的气氛中沉沉睡去
The mild air that gives such pleasure,
causes all to leave off dancing and singing;
it is the season that invites all and sundry
to the fair delights of sweet sleep.

在歌声及舞蹈停止之时
大地重回宁静
万物随庄稼的人们
在秋高气爽中一同进入梦乡
The hunters, a-hunting at dawn,
set out with horns, guns, and hounds.
The beast flees, they follow its tracks;
Already terrified and exhausted from the noise
of the guns and hounds, the wounded creature
tries weakly to flee, but is overcome and dies.

破晓时分
号角响起
猎人带著猎狗整装待发
鸟兽纷逃 而猎人开始追寻猎物的行踪
一阵枪声剧响夹杂猎狗的狂吠之后
动物四窜奔逃但终奄奄一息
不敌死神的召唤

Winter

Trembling, frozen, in the icy snow
at the horrid wind's harsh breath;
running while constantly stamping one's feet;
and feeling the teeth chatter from the overwhelming cold.

人们在冷冽的寒风中
在沁冷的冰雪里 不住发抖
靠著来回跺步来保持体温
但牙齿仍不住地打颤
Passing quiet and contented days by the fire,
while outside the rain soaks people by the hundreds;
walking in the ice with slow steps,
for fear of falling, turning cautiously;
Turning suddenly, slipping, falling down,
going on the ice again and running fast
until the ice breaks open.

在滂沱大雨中坐在火炉旁度过
安静而美好的时光
小心翼翼地踩著步伐前进
深怕一个不留神栽了个跟斗
有时在冰上匆匆滑过
跌坐在雪上 来回地跑步玩耍
直到 冰裂雪融的时刻 听见温暖的南风已轻叩
Hearing, as they burst through the bolted doors,
Sirocco, Boreas, and all the winds at war.
This is winter, but it brings such joy!

直到 冰裂雪融的时刻 听见温暖的南风已轻叩
冷漠的冰雪大门
这是冬天
一个愉快的冬天

IPB Image
IPB Image
IPB Image
IPB Image
IPB Image

.log

引用
Exact Audio Copy V1.0 beta 1 from 15. November 2010

EAC extraction logfile from 20. April 2011, 23:49

Antonio Vivaldi / Le Quattro Stagioni [Michel Schwalbe, Herbert Von Karajan, Berliner Philharmoniker]

Used drive : Optiarc DVD RW AD-7240S Adapter: 2 ID: 1

Read mode : Secure
Utilize accurate stream : Yes
Defeat audio cache : Yes
Make use of C2 pointers : No

Read offset correction : 48
Overread into Lead-In and Lead-Out : No
Fill up missing offset samples with silence : Yes
Delete leading and trailing silent blocks : No
Null samples used in CRC calculations : Yes
Used interface : Native Win32 interface for Win NT & 2000
Gap handling : Appended to previous track

Used output format : User Defined Encoder
Selected bitrate : 896 kBit/s
Quality : High
Add ID3 tag : No
Command line compressor : C:\Program Files (x86)\Exact Audio Copy New\FLAC\FLAC.EXE
Additional command line options : -8 -V -T "ARTIST=%a" -T "TITLE=%t" -T "ALBUM=%g" -T "DATE=%y" -T "TRACKNUMBER=%n" -T "GENRE=%m" -T "COMMENT=EAC FLAC -8" %s


TOC of the extracted CD

Track | Start | Length | Start sector | End sector
---------------------------------------------------------
1 | 0:00.00 | 3:26.00 | 0 | 15449
2 | 3:26.00 | 3:21.00 | 15450 | 30524
3 | 6:47.00 | 4:35.00 | 30525 | 51149
4 | 11:22.00 | 5:47.00 | 51150 | 77174
5 | 17:09.00 | 2:17.00 | 77175 | 87449
6 | 19:26.00 | 2:53.00 | 87450 | 100424
7 | 22:19.00 | 5:27.00 | 100425 | 124949
8 | 27:46.00 | 2:34.50 | 124950 | 136549
9 | 30:20.50 | 3:40.25 | 136550 | 153074
10 | 34:01.00 | 3:29.00 | 153075 | 168749
11 | 37:30.00 | 2:15.00 | 168750 | 178874
12 | 39:45.00 | 3:20.00 | 178875 | 193874


Track 1

Filename C:\Lossless\Antonio Vivaldi - 1972 - Le Quattro Stagioni [Karajan] [flac]\01 - Primavera - Allegro.wav

Pre-gap length 0:00:02.00

Peak level 96.8 %
Extraction speed 2.4 X
Track quality 100.0 %
Test CRC 607A7DA4
Copy CRC 607A7DA4
Track not present in AccurateRip database
Copy OK

Track 2

Filename C:\Lossless\Antonio Vivaldi - 1972 - Le Quattro Stagioni [Karajan] [flac]\02 - Primavera - Largo.wav

Peak level 46.9 %
Extraction speed 2.6 X
Track quality 100.0 %
Test CRC 896CD261
Copy CRC 896CD261
Track not present in AccurateRip database
Copy OK

Track 3

Filename C:\Lossless\Antonio Vivaldi - 1972 - Le Quattro Stagioni [Karajan] [flac]\03 - Primavera - Allegro.wav

Peak level 97.3 %
Extraction speed 2.9 X
Track quality 100.0 %
Test CRC 5F71FEB2
Copy CRC 5F71FEB2
Track not present in AccurateRip database
Copy OK

Track 4

Filename C:\Lossless\Antonio Vivaldi - 1972 - Le Quattro Stagioni [Karajan] [flac]\04 - Estate - Allegro Non Molto, Allegro.wav

Pre-gap length 0:00:05.00

Peak level 99.9 %
Extraction speed 3.0 X
Track quality 99.9 %
Test CRC 07EDFB0D
Copy CRC 07EDFB0D
Track not present in AccurateRip database
Copy OK

Track 5

Filename C:\Lossless\Antonio Vivaldi - 1972 - Le Quattro Stagioni [Karajan] [flac]\05 - Estate - Adagio E Piano, Presto E Forte.wav

Peak level 99.9 %
Extraction speed 3.0 X
Track quality 100.0 %
Test CRC 82879C77
Copy CRC 82879C77
Track not present in AccurateRip database
Copy OK

Track 6

Filename C:\Lossless\Antonio Vivaldi - 1972 - Le Quattro Stagioni [Karajan] [flac]\06 - Estate - Presto.wav

Peak level 99.9 %
Extraction speed 2.8 X
Track quality 99.9 %
Test CRC C322D06A
Copy CRC C322D06A
Track not present in AccurateRip database
Copy OK

Track 7

Filename C:\Lossless\Antonio Vivaldi - 1972 - Le Quattro Stagioni [Karajan] [flac]\07 - Autunno - Allegro.wav

Pre-gap length 0:00:07.00

Peak level 97.5 %
Extraction speed 3.8 X
Track quality 100.0 %
Test CRC 256B5A77
Copy CRC 256B5A77
Track not present in AccurateRip database
Copy OK

Track 8

Filename C:\Lossless\Antonio Vivaldi - 1972 - Le Quattro Stagioni [Karajan] [flac]\08 - Autunno - Adagio Molto.wav

Peak level 10.3 %
Extraction speed 3.5 X
Track quality 100.0 %
Test CRC C2EB518B
Copy CRC C2EB518B
Track not present in AccurateRip database
Copy OK

Track 9

Filename C:\Lossless\Antonio Vivaldi - 1972 - Le Quattro Stagioni [Karajan] [flac]\09 - Autunno - Allegro.wav

Peak level 99.5 %
Extraction speed 3.9 X
Track quality 100.0 %
Test CRC A783FAFC
Copy CRC A783FAFC
Track not present in AccurateRip database
Copy OK

Track 10

Filename C:\Lossless\Antonio Vivaldi - 1972 - Le Quattro Stagioni [Karajan] [flac]\10 - Inverno - Allegro.wav

Pre-gap length 0:00:08.00

Peak level 99.9 %
Extraction speed 4.0 X
Track quality 100.0 %
Test CRC C793A26B
Copy CRC C793A26B
Track not present in AccurateRip database
Copy OK

Track 11

Filename C:\Lossless\Antonio Vivaldi - 1972 - Le Quattro Stagioni [Karajan] [flac]\11 - Inverno - Adagio.wav

Peak level 23.4 %
Extraction speed 3.7 X
Track quality 100.0 %
Test CRC AE5FC306
Copy CRC AE5FC306
Track not present in AccurateRip database
Copy OK

Track 12

Filename C:\Lossless\Antonio Vivaldi - 1972 - Le Quattro Stagioni [Karajan] [flac]\12 - Inverno - Allegro.wav

Peak level 95.3 %
Extraction speed 4.2 X
Track quality 100.0 %
Test CRC 1C327BAB
Copy CRC 1C327BAB
Track not present in AccurateRip database
Copy OK


None of the tracks are present in the AccurateRip database

No errors occurred

End of status report

==== Log checksum 2C40A6D2F24E267B2749BDB000CC043473351664B4D79392EF846EC55FCAAAA7 ====

.cue
引用
REM GENRE "Classical / Concerto"
REM DATE 1972
REM DISCID 930A190C
REM COMMENT "ExactAudioCopy v1.0b1"
PERFORMER "Michel Schwalbe, Herbert Von Karajan, Berliner Philharmoniker
TITLE "Antonio Vivaldi - Le Quattro Stagioni"
FILE "01 - Primavera - Allegro.flac" WAVE
TRACK 01 AUDIO
TITLE "Primavera - Allegro"
PERFORMER "Antonio Vivaldi"
INDEX 01 00:00:00
FILE "02 - Primavera - Largo.flac" WAVE
TRACK 02 AUDIO
TITLE "Primavera - Largo"
PERFORMER "Antonio Vivaldi"
INDEX 01 00:00:00
FILE "03 - Primavera - Allegro.flac" WAVE
TRACK 03 AUDIO
TITLE "Primavera - Allegro"
PERFORMER "Antonio Vivaldi"
INDEX 01 00:00:00
TRACK 04 AUDIO
TITLE "Estate - Allegro Non Molto, Allegro"
PERFORMER "Antonio Vivaldi"
INDEX 00 04:30:00
FILE "04 - Estate - Allegro Non Molto, Allegro.flac" WAVE
INDEX 01 00:00:00
FILE "05 - Estate - Adagio E Piano, Presto E Forte.flac" WAVE
TRACK 05 AUDIO
TITLE "Estate - Adagio E Piano, Presto E Forte"
PERFORMER "Antonio Vivaldi"
INDEX 01 00:00:00
FILE "06 - Estate - Presto.flac" WAVE
TRACK 06 AUDIO
TITLE "Estate - Presto"
PERFORMER "Antonio Vivaldi"
INDEX 01 00:00:00
TRACK 07 AUDIO
TITLE "Autunno - Allegro"
PERFORMER "Antonio Vivaldi"
INDEX 00 02:46:00
FILE "07 - Autunno - Allegro.flac" WAVE
INDEX 01 00:00:00
FILE "08 - Autunno - Adagio Molto.flac" WAVE
TRACK 08 AUDIO
TITLE "Autunno - Adagio Molto"
PERFORMER "Antonio Vivaldi"
INDEX 01 00:00:00
FILE "09 - Autunno - Allegro.flac" WAVE
TRACK 09 AUDIO
TITLE "Autunno - Allegro"
PERFORMER "Antonio Vivaldi"
INDEX 01 00:00:00
TRACK 10 AUDIO
TITLE "Inverno - Allegro"
PERFORMER "Antonio Vivaldi"
INDEX 00 03:32:25
FILE "10 - Inverno - Allegro.flac" WAVE
INDEX 01 00:00:00
FILE "11 - Inverno - Adagio.flac" WAVE
TRACK 11 AUDIO
TITLE "Inverno - Adagio"
PERFORMER "Antonio Vivaldi"
INDEX 01 00:00:00
FILE "12 - Inverno - Allegro.flac" WAVE
TRACK 12 AUDIO
TITLE "Inverno - Allegro"
PERFORMER "Antonio Vivaldi"
INDEX 01 00:00:00



专辑曲目

Concerto Grosso E-Dur (In E Major - En Mi Majeur) PV241
I. La Primavera (Der Frühling - Spring - Le Printemps)
1. Allegro: 3:24
2. Largo: 3:21
3. Allegro: 4:25
Concerto Grosso G-Moll (In G Minor - En Sol Mineur) PV 336
II. L'Estate (Der Sommer - Summer - L'Eté)
1. Allegro Non Molto - Allegro: 5:48
2. Adagio: 2:16
3. Presto: 2:43
Concerto Grosso F-Dur (In F Major - En Fa Majeur) PV 257
III. L'Autumno (Der Herbst - Autumn - L'Automne)
1. Allegro: 5:26
2. Adagio: 2:35
3. Allegro: 3:31
Concerto Grosso F-Moll (In F Minor - En Fa Mineur) PV 442
IV. L'Inverno (Der Winter - Winter - L'Hiver)
1. Allegro: 3:29
2. Largo: 2:14
3. Allegro: 3:20

正在读取……

这里是其它用户补充的资源(我也要补充):

飞龙在天xls 2011/09/28 18:22:16 补充
经过修改的CUE文件:

该内容尚未提供权利证明,无法提供下载。
正在加载,请稍等...

点击查看所有59网友评论

 

(?) [公告]留口水、评论相关规则 | [活动]每日签到 轻松领取电驴经验

    小贴士:
  1. 类似“顶”、“沙发”之类没有营养的文字,对勤劳贡献的楼主来说是令人沮丧的反馈信息。
  2. 提问之前请再仔细看一遍楼主的说明,或许是您遗漏了。
  3. 勿催片。请相信驴友们对分享是富有激情的,如果确有更新版本,您一定能搜索到。
  4. 请勿到处挖坑绊人、招贴广告。既占空间让人厌烦,又没人会搭理,于人于己都无利。
  5. 如果您发现自己的评论不见了,请参考以上4条。