v

您的位置:VeryCD音乐古典音乐

音乐资源事务区


Ketelbey -《寺庙花园》(IN A MONASTERY GARDEN)[FLAC]

  • 状态: 精华资源
  • 摘要:
    发行时间1996年1月8日
  • 时间: 2011/09/04 16:25:12 发布 | 2012/03/24 20:04:02 更新
  • 分类: 音乐  古典音乐 

haoniuniu

精华资源: 5

全部资源: 5

相关: 分享到新浪微博   转播到腾讯微博   分享到开心网   分享到人人   分享到QQ空间   订阅本资源RSS更新   美味书签  subtitle
该内容尚未提供权利证明,无法提供下载。
专辑英文名IN A MONASTERY GARDEN
专辑中文名寺庙花园
别名凯特尔贝的不朽之作 - 小提琴返场作品
艺术家Ketelbey
资源格式FLAC
发行时间1996年1月8日
地区英国
简介

IPB Image

CD编号: 444 786-2
指挥: 埃里克/罗杰斯(Eric Rogers)指挥
演奏: 皇家爱乐与合唱团
出品: London 444 786-2
SPARS 码: ADD (以类比方式“录音”(A),而“混音”和“母带后制”皆以数位方式处理(D))

专辑介绍:

这也是一张Phase 4再版录音。入选的原因当然分演奏与录音二大项。先说演奏方面,英国轻古典作曲家Ketlbey的脍炙人口作品都在里面,如「波斯市场」、「中国寺庙花园」等,听了如果您不喜欢才怪。其次,下半段的小提琴昂可曲更是曲曲精彩,在LP时代就已经人手一张,不听绝对遗憾终生。至于录音的成就,最迷人的就是一切都很「大腹」饱满,尤其是弦乐群,简直就迷死人了还有,Sakonov那把小提琴可说是油光甜润,不由您不喜欢。

难关:
弦乐群如果不够「大腹」,那绝对是说不过去的,您一定要深自检讨。各种乐器的质感如果不够鲜明,那也说不过去。音场内乐器的高低感如果听起来不明显或没有感觉,那也相当糟糕,一定要找出原因。Sakonov的小提琴有没有泛着金黄色的光泽?如果没有光泽,而且还会刺耳,那一切都完了。

二、 作者介绍
Albert William Ketelbey
20世纪初英国相当活跃的通俗管弦乐作曲家,善于写作富有东方情调文化之作品,乐风稳健﹑清新,给人的印象相当特殊。科特比 Ketelbe 同时精通管风琴、长笛、大提琴、双簧管、竖笛等,且曾经担教堂的管风琴师。 这类轻松且充满异国情调的管弦小品,其后成为科特比Ketelbey的注册商标,被泛称为「描写音乐」。

著名作品:
  1. 波斯市场 In a Persian Market
  2. 在埃及神秘的土地 In the Mystic Land of Egypt
  3. 中国寺庙的庭院 In a Chinese Temple-Garden
  4. 在修道院庭院 In a Monastery Garden

三、 名曲解析
我估计很多人都不喜欢听古典音乐,是因为不了解古典音乐。古典并不像通俗音乐,一听就明白。但是对于古典音乐你只要听一下解析,就知道他要说什么?表达什么意思啦?以波斯市场为例:
  「波斯市场」是科特比作品中最出名的一首,描写波斯市场上,喧闹杂沓的情景。全曲可分为八个乐段:
  1.骆驼队的来临:由弱而渐增强的轻快旋律,渐渐形成市场热闹的场面,其中间或还可听到骆驼的铃声。
  2. 传来乞丐哀求施舍的声音:由男声合唱一段低沉有力的曲调,呢喃着「慈悲啊,阿拉的神」反复多次,这是给人印象极为深刻的音乐。
  3.美丽的公主坐轿来到:在竖琴轻柔的伴奏下,出现优美而细腻的旋律,曲势逐渐增强,象征公主仪仗的辉煌。
  4.观看魔术师和玩蛇者的表演:魔术师主题俏皮而活泼,衬托出一种奇特的神秘气氛,接着弄蛇者的主题,充满了波斯风味与异国情调。
  5.酋长行列经过市场,表演中断:玩蛇者的主题忽然被宏伟的铜管乐器打断,酋长行列经过市场,但立刻远去。
  6. 再听到乞丐的求乞声:男声合唱慈悲啊! 阿拉的神,但只一次便停止。
  7.公主准备回宫:公主主题再现,由强渐弱的曲势表示公主从市场离去。
  8.骆驼队逐渐远去,市场复归宁静:开头的进行曲再现出来,但也逐渐减弱,这时远远的犹可听见公主的主题,渐行渐远,渐行渐远,终于不见。

当你看完解析,再去听音乐,就会感觉到曲子描写的非常生动!作者的想象力非常丰富啦。另外我再推荐几首古典音乐,比如沃尔塔瓦河,你先看一下解析,再听一下音乐,才能体会到栩栩如生。

EAC文件如下:
###########################################
Exact Audio Copy V1.0 beta 2 from 29. April 2011

EAC extraction logfile from 4. September 2011, 15:20

Ketelbey / In a Monastery Garden

Used drive : Optiarc DVD+-RW AD-7700H Adapter: 0 ID: 1

Read mode : Secure
Utilize accurate stream : Yes
Defeat audio cache : No
Make use of C2 pointers : No

Read offset correction : 48
Overread into Lead-In and Lead-Out : No
Fill up missing offset samples with silence : Yes
Delete leading and trailing silent blocks : No
Null samples used in CRC calculations : No
Used interface : Native Win32 interface for Win NT & 2000

Used output format : Internal WAV Routines
Sample format : 44.100 Hz; 16 Bit; Stereo


TOC of the extracted CD

Track | Start | Length | Start sector | End sector
---------------------------------------------------------
1 | 0:00.32 | 5:25.00 | 32 | 24406
2 | 5:25.32 | 4:04.00 | 24407 | 42706
3 | 9:29.32 | 6:03.00 | 42707 | 69931
4 | 15:32.32 | 4:34.00 | 69932 | 90481
5 | 20:06.32 | 5:54.00 | 90482 | 117031
6 | 26:00.32 | 3:57.00 | 117032 | 134806
7 | 29:57.32 | 2:23.00 | 134807 | 145531
8 | 32:20.32 | 3:58.00 | 145532 | 163381
9 | 36:18.32 | 5:46.00 | 163382 | 189331
10 | 42:04.32 | 2:52.00 | 189332 | 202231
11 | 44:56.32 | 3:02.00 | 202232 | 215881
12 | 47:58.32 | 4:45.00 | 215882 | 237256
13 | 52:43.32 | 3:19.00 | 237257 | 252181
14 | 56:02.32 | 4:45.00 | 252182 | 273556
15 | 60:47.32 | 3:49.00 | 273557 | 290731
16 | 64:36.32 | 4:29.00 | 290732 | 310906
17 | 69:05.32 | 3:23.00 | 310907 | 326131
18 | 72:28.32 | 4:35.35 | 326132 | 346791


Range status and errors

Selected range

Filename D:\备份\桌面\In a Monastery Garden\Ketelbey - In a Monastery Garden.wav

Peak level 100.0 %
Extraction speed 3.6 X
Range quality 100.0 %
Copy CRC 7D78C235
Copy OK

No errors occurred


AccurateRip summary

Track 1 accurately ripped (confidence 2) [51A2C4D7] (AR v1)
Track 2 accurately ripped (confidence 2) [F4B6DC8E] (AR v1)
Track 3 accurately ripped (confidence 2) [08FA86A8] (AR v1)
Track 4 accurately ripped (confidence 2) [AFA7D554] (AR v1)
Track 5 accurately ripped (confidence 2) [D30774F5] (AR v1)
Track 6 accurately ripped (confidence 2) [1504882E] (AR v1)
Track 7 accurately ripped (confidence 2) [98F6138C] (AR v1)
Track 8 accurately ripped (confidence 2) [CEE60CA6] (AR v1)
Track 9 accurately ripped (confidence 2) [3DFA5CC4] (AR v1)
Track 10 accurately ripped (confidence 2) [96BD73E0] (AR v1)
Track 11 accurately ripped (confidence 2) [C370A8C0] (AR v1)
Track 12 accurately ripped (confidence 2) [0272C629] (AR v1)
Track 13 accurately ripped (confidence 2) [260A3E1E] (AR v1)
Track 14 accurately ripped (confidence 2) [1D6BF52B] (AR v1)
Track 15 accurately ripped (confidence 2) [E8B5C9D7] (AR v1)
Track 16 accurately ripped (confidence 2) [3D9173FD] (AR v1)
Track 17 accurately ripped (confidence 2) [C28F1DC1] (AR v1)
Track 18 accurately ripped (confidence 2) [82DB38AC] (AR v1)

All tracks accurately ripped

End of status report
###########################################

IPB Image

IPB Image



专辑曲目

1.In A Monastery Garden 在修道院庭院
2.Wedgwood Blue
3.The Mystic Land Of Egypt 在埃及神秘的土地
4.Bells Across The Meadows
5.A Chinese Temple Garden 中国寺庙的庭院
6.Sanctuary Of The Heart 心的圣殿
7. 'Appy' Ampstead
8.The Phantom Melody 幽灵般的旋律
9.In A Persian Market 波斯市场
10.Hejre Kati
11.Berceuse De Jocelyn
12.Valse Sentimentale
13.Fetes Tziganes
14.Meditation 沉思(小提琴名曲)
15.Im Chambre Separee
16.Garden Scene
17.None But The Lonely Heart
18.Czardas - London Festival Orch

正在读取……

这里是其它用户补充的资源(我也要补充):

暂无补充资源
正在加载,请稍等...

点击查看所有45网友评论

 

(?) [公告]留口水、评论相关规则 | [活动]每日签到 轻松领取电驴经验

    小贴士:
  1. 类似“顶”、“沙发”之类没有营养的文字,对勤劳贡献的楼主来说是令人沮丧的反馈信息。
  2. 提问之前请再仔细看一遍楼主的说明,或许是您遗漏了。
  3. 勿催片。请相信驴友们对分享是富有激情的,如果确有更新版本,您一定能搜索到。
  4. 请勿到处挖坑绊人、招贴广告。既占空间让人厌烦,又没人会搭理,于人于己都无利。
  5. 如果您发现自己的评论不见了,请参考以上4条。