v

您的位置:VeryCD动漫电视动画

动漫资源事务区


《猫和老鼠:绿野仙踪》(Tom & Jerry & The Wizard of Oz)[全一集][更新DVDRip][2011剧场版][704x396][AVI][HDTVRip+DVDRip]

  • 状态: 精华资源
  • 摘要:
    发行时间2011年8月23日
    语言英语
  • 时间: 2011/08/29 06:26:56 发布 | 2011/09/03 12:01:03 更新
  • 分类: 动漫  电视动画 

life_is_good

精华资源: 6571

全部资源: 7301

相关: 分享到新浪微博   转播到腾讯微博   分享到开心网   分享到人人   分享到QQ空间   订阅本资源RSS更新   美味书签  subtitle
该内容尚未提供权利证明,无法提供下载。
中文名猫和老鼠:绿野仙踪
英文名Tom & Jerry & The Wizard of Oz
版本[全一集][更新DVDRip][2011剧场版][704x396][AVI][HDTVRip+DVDRip]
发行时间2011年8月23日
导演Spike Brandt
地区美国
语言英语
简介

IPB Image

【首播时间】 2011年
【字幕制作】 暂无


【内容介绍】

经典的猫与老鼠的新出剧场版。绿野仙踪版。

【STAFF】

导演:Spike Brandt
编剧:Gene Grillo

【CAST】

Grey Delisle
Laraine Newman
Kath Soucie
Todd Stashwick
Rob Paulsen
Michael Gough

【视频截图】

HDTVRiP

IPB Image

IPB Image

IPB Image

IPB Image

IPB Image

IPB Image

IPB Image

DVDRip

IPB Image

IPB Image

IPB Image

【编码参数】

HDTVRiP

代码
Encoded By .......:UnKnOwN
Runtime ..........:1:00
IMDb URL .........:http://www.amazon.com/Tom-Jerry-Wizard-Oz/dp/B004ZENT78
Language .........:English
File Size ........:604mb  
Release Date ......... 2011
Source       ......... Thx Bud
File Type    ......... Single AVI  
PS3 Compatible ....... Go for It  
Genre        ......... Comedy/Kids  
Video  
ID                               : 0
Format                           : MPEG-4 Visual
Format profile                   : Advanced Simple@L5
Format settings, BVOP            : Yes
Format settings, QPel            : No
Format settings, GMC             : No warppoints  
Format settings, Matrix          : Custom    
Codec ID                         : XVID
Codec ID/Hint                    : XviD
Duration                         : 1h 00mn
Bit rate                         : 1 200 Kbps
Width                            : 704pixels
Height                           : 396pixels  
Display aspect ratio             : 16:9
Frame rate                       : 29.997fps
Color space                      : YUV  
Chroma subsampling               : 4:2:0  
Bit depth                        : 8 bits
Scan type                        : Progressive
Bits/(Pixel*Frame)               : 0.234
Stream size                      : 892 MiB (86%)
Writing library                  : XviD 1.2.1 (UTC 2008-12-04)  

Audio
ID                               : 1
Format                           : AC3
Format/Info                      : Version 1
Mode extension                   : AC3
Codec ID                         : 2000  
Duration                         : 1h 00mn
Bit rate mode                    : Constant
Bit rate                         : 448Kbps  
Channel(s)                       : 6channels  
Channel positions                : Front: L R
Sampling rate                    : 48.0 KHz
Bit depth                        : 16 bits
Stream size                      : 302 MiB  
Alignment                        : Aligned on interleaves
Interleave, duration             : 42 ms (1.00 video frame)
Interleave, preload duration     : 512 ms
DVDRip
代码
General
Complete name : Tom.and.Jerry.and.The.Wizard.of.Oz.2011.DVDRip.XVID.AC3.HQ.Hive-CM8.avi
Format : AVI
Format/Info : Audio Video Interleave
File size : 1 004 MiB
Duration : 59mn 8s
Overall bit rate : 2 375 Kbps
Writing application : Nandub v1.0rc2
Writing library : Nandub build 1853/release

Video
ID : 0
Format : MPEG-4 Visual
Format profile : Advanced Simple@L5
Format settings, BVOP : 1
Format settings, QPel : Yes
Format settings, GMC : No warppoints
Format settings, Matrix : Default (H.263)
Muxing mode : Packed bitstream
Codec ID : XVID
Codec ID/Hint : XviD
Duration : 59mn 8s
Bit rate : 1 915 Kbps
Width : 720 pixels
Height : 400 pixels
Display aspect ratio : 16:9
Frame rate : 29.970 fps
Color space : YUV
Chroma subsampling : 4:2:0
Bit depth : 8 bits
Scan type : Progressive
Compression mode : Lossy
Bits/(Pixel*Frame) : 0.222
Stream size : 810 MiB (81%)
Writing library : XviD 1.2.1 (UTC 2008-12-04)

Audio
ID : 1
Format : AC-3
Format/Info : Audio Coding 3
Mode extension : CM (complete main)
Codec ID : 2000
Duration : 59mn 8s
Bit rate mode : Constant
Bit rate : 448 Kbps
Channel(s) : 6 channels
Channel positions : Front: L C R, Side: L R, LFE
Sampling rate : 48.0 KHz
Bit depth : 16 bits
Compression mode : Lossy
Stream size : 189 MiB (19%)
Alignment : Split across interleaves
Interleave, duration : 33 ms (1.00 video frame)
Interleave, preload duration : 500 ms

正在读取……

这里是其它用户补充的资源(我也要补充):

暂无补充资源
正在加载,请稍等...

点击查看所有30网友评论

 

(?) [公告]留口水、评论相关规则 | [活动]每日签到 轻松领取电驴经验

    小贴士:
  1. 类似“顶”、“沙发”之类没有营养的文字,对勤劳贡献的楼主来说是令人沮丧的反馈信息。
  2. 提问之前请再仔细看一遍楼主的说明,或许是您遗漏了。
  3. 勿催片。请相信驴友们对分享是富有激情的,如果确有更新版本,您一定能搜索到。
  4. 请勿到处挖坑绊人、招贴广告。既占空间让人厌烦,又没人会搭理,于人于己都无利。
  5. 如果您发现自己的评论不见了,请参考以上4条。