v

您的位置:VeryCD动漫剧场动画

动漫资源事务区


《红线》(redline)mkv[DVDRip]

  • 状态: 精华资源
  • 摘要:
    发行时间2010年
    语言日语
  • 时间: 2011/08/14 17:02:38 发布 | 2011/08/23 14:04:46 更新
  • 分类: 动漫  剧场动画 

zaojiw000

精华资源: 103

全部资源: 231

相关: 分享到新浪微博   转播到腾讯微博   分享到开心网   分享到人人   分享到QQ空间   订阅本资源RSS更新   美味书签  subtitle
该内容尚未提供权利证明,无法提供下载。
中文名红线
英文名redline
资源格式DVDRip
版本mkv
发行时间2010年
导演小池健
地区日本
语言日语
简介

IPB Image
类型: 动画 / 动作 / 科幻
片长:102分钟
分级: Taiwan:GP
对白语言: 日语


这是一部充满激情的原创动画,制作方旨在打造前所未有的体感型动画,让人们在电影院中体验极限飙车,玩一把速度与激情。

视频流信息
+编码格式: V_MPEG4/ISO/AVC
+视频码率: 0 kbps
+视频帧率:23 fps
+分 辨 率: 688 x 464
+显示比率: 1.795

音频流信息
+编码格式: A_AC3
+音频码率: 0 kbps
+声 道 数: 6 channels
+采 样 数: 48000 Hz
+音频位数: 0 bits


转自http://www.m1905.com/news/20101007/394836.shtml
日本动画《红线》美国将映 木村拓哉喜出望外

人气男星木村拓哉10月6日现身东京,出席由其担当声优的动画影片《红线》(REDLINE)试映会。当天主办方突然宣布该片即将于2011年在美国上映,并且将采用日语原声、英语字幕版,这令毫不知情的木村倍感欣喜:“真的吗?我今天是第一次听说,我想我现在只有高兴的心情了……”

此次是木村自2004年为《哈尔的移动城堡》配音以来,二度挑战声优。木村为片中追求极限速度的主人公JP配音,而为JP心仪的赛车少女配音的是清纯女星苍井优。当被问及与苍井优合作的感受时,木村直言:“她的声音真的极具魅力!”如此褒奖,表露出木村对苍井的极大肯定。该片根据日本知名动画人石井克人的原作漫画改编,并由石井本人担当剧本。石井透露,他曾经在木村拍摄某广告现场的后台,听到了木村的声音,认为片中主人公的声音就是木村,随即向木村发出担当声优的邀请。木村对此表示:“能够接受石井的邀请,我感到非常高兴,所以我当即做出了为该片担当声优的决定!”

还有一件令木村感动的事情,就是影片描绘出的CG全盛时代的完美影像,全部是由手绘创作完成,该片导演小池健通过4年的创作,手绘画将近10万张。对此木村感慨道:“从创作10万张手绘画,到影片制作完成,总计花费7年时间,这正好是从初中到高中毕业的时间,我真的要对他们表示出无条件的尊敬。”随即向身旁的小池导演和石井投去尊敬的诚恳目光。

故事以5年一度的宇宙最快速赛车比赛“REDLINE”为核心,讲述了热血赛车手们向最终目标“红线”发起挑战的故事。影片《红线》将于10月9日在日本全国公映。

引用
Unique ID : 227880130787070242348544475851840063086 (0xAB701DE412B8D2D9824B11E6C6E4866E)
Complete name : [umee]_REDLINE_[DVD]_[A868FBA6].mkv
Format : Matroska
Format version : Version 2
File size : 1.44 GiB
Duration : 1h 41mn
Overall bit rate : 2 033 Kbps
Movie name : [umee] REDLINE
Encoded date : UTC 2011-08-12 04:31:50
Writing application : mkvmerge v4.9.1 ('Ich will') built on Jul 11 2011 23:53:15
Writing library : libebml v1.2.1 + libmatroska v1.1.1
Attachment : Yes / Yes / Yes / Yes

Video
ID : 1
Format : AVC
Format/Info : Advanced Video Codec
Format profile : High@L3.1
Format settings, CABAC : Yes
Format settings, ReFrames : 8 frames
Codec ID : V_MPEG4/ISO/AVC
Duration : 1h 41mn
Bit rate : 1 609 Kbps
Width : 688 pixels
Height : 464 pixels
Display aspect ratio : 16:9
Original display aspect ratio : 16:9
Frame rate : 23.976 fps
Color space : YUV
Chroma subsampling : 4:2:0
Bit depth : 8 bits
Scan type : Progressive
Bits/(Pixel*Frame) : 0.210
Stream size : 1.14 GiB (79%)
Title : Sonoshee!
Writing library : x264 core 116 r2057+604 5ec0ca0
Encoding settings : cabac=1 / ref=8 / deblock=1:0:0 / analyse=0x3:0x133 / me=umh / subme=11 / psy=1 / fade_compensate=0.00 / psy_rd=1.00:0.00 / mixed_ref=1 / me_range=16 / chroma_me=1 / trellis=2 / 8x8dct=1 / cqm=0 / deadzone=21,11 / fast_pskip=1 / chroma_qp_offset=-2 / threads=12 / sliced_threads=0 / nr=0 / decimate=1 / interlaced=0 / bluray_compat=0 / constrained_intra=0 / fgo=0 / bframes=8 / b_pyramid=2 / b_adapt=2 / b_bias=0 / direct=3 / weightb=1 / open_gop=0 / weightp=2 / keyint=300 / keyint_min=23 / scenecut=40 / intra_refresh=0 / rc_lookahead=60 / rc=crf / mbtree=1 / crf=17.5 / qcomp=0.60 / qpmin=0 / qpmax=69 / qpstep=4 / ip_ratio=1.40 / aq=1:0.80
Language : Japanese

Audio
ID : 2
Format : AC-3
Format/Info : Audio Coding 3
Mode extension : CM (complete main)
Codec ID : A_AC3
Duration : 1h 41mn
Bit rate mode : Constant
Bit rate : 384 Kbps
Channel(s) : 6 channels
Channel positions : Front: L C R, Side: L R, LFE
Sampling rate : 48.0 KHz
Bit depth : 16 bits
Compression mode : Lossy
Stream size : 279 MiB (19%)
Title : JP!
Language : Japanese

Text
ID : 3
Format : ASS
Codec ID : S_TEXT/ASS
Codec ID/Info : Advanced Sub Station Alpha
Compression mode : Lossless
Title : derp
Language : English

Menu #1
00:00:00.000 : en:Chapter 1
00:02:10.667 : en:Chapter 2
00:05:42.000 : en:Chapter 3
00:09:18.667 : en:Chapter 4
00:11:51.167 : en:Chapter 5
00:13:34.667 : en:Chapter 6
00:15:52.833 : en:Chapter 7
00:18:56.333 : en:Chapter 8
00:21:39.499 : en:Chapter 9
00:24:14.166 : en:Chapter 10
00:28:52.833 : en:Chapter 11
00:34:58.833 : en:Chapter 12
00:38:00.166 : en:Chapter 13
00:40:06.166 : en:Chapter 14
00:43:12.000 : en:Chapter 15
00:45:39.000 : en:Chapter 16
00:48:57.834 : en:Chapter 17
00:54:17.834 : en:Chapter 18
00:57:47.834 : en:Chapter 19
01:03:12.501 : en:Chapter 20
01:07:06.667 : en:Chapter 21
01:11:07.334 : en:Chapter 22
01:14:57.001 : en:Chapter 23
01:18:51.668 : en:Chapter 24
01:20:45.335 : en:Chapter 25
01:22:19.668 : en:Chapter 26
01:27:32.168 : en:Chapter 27
01:29:57.002 : en:Chapter 28
01:32:49.335 : en:Chapter 29
01:36:36.002 : en:Chapter 30

Menu #2
00:00:00.000 : en:Chapter 1
00:02:10.667 : en:Chapter 2
00:05:42.000 : en:Chapter 3
00:09:18.667 : en:Chapter 4
00:11:51.167 : en:Chapter 5
00:13:34.667 : en:Chapter 6
00:15:52.833 : en:Chapter 7
00:18:56.333 : en:Chapter 8
00:21:39.499 : en:Chapter 9
00:24:14.166 : en:Chapter 10
00:28:52.833 : en:Chapter 11
00:34:58.833 : en:Chapter 12
00:38:00.166 : en:Chapter 13
00:40:06.166 : en:Chapter 14
00:43:12.000 : en:Chapter 15
00:45:39.000 : en:Chapter 16
00:48:57.834 : en:Chapter 17
00:54:17.834 : en:Chapter 18
00:57:47.834 : en:Chapter 19
01:03:12.501 : en:Chapter 20
01:07:06.667 : en:Chapter 21
01:11:07.334 : en:Chapter 22
01:14:57.001 : en:Chapter 23
01:18:51.668 : en:Chapter 24
01:20:45.335 : en:Chapter 25
01:22:19.668 : en:Chapter 26
01:27:32.168 : en:Chapter 27
01:29:57.002 : en:Chapter 28
01:32:49.335 : en:Chapter 29
01:36:36.002 : en:Chapter 30

IPB Image

正在读取……

这里是其它用户补充的资源(我也要补充):

暂无补充资源
正在加载,请稍等...

点击查看所有104网友评论

 

(?) [公告]留口水、评论相关规则 | [活动]每日签到 轻松领取电驴经验

    小贴士:
  1. 类似“顶”、“沙发”之类没有营养的文字,对勤劳贡献的楼主来说是令人沮丧的反馈信息。
  2. 提问之前请再仔细看一遍楼主的说明,或许是您遗漏了。
  3. 勿催片。请相信驴友们对分享是富有激情的,如果确有更新版本,您一定能搜索到。
  4. 请勿到处挖坑绊人、招贴广告。既占空间让人厌烦,又没人会搭理,于人于己都无利。
  5. 如果您发现自己的评论不见了,请参考以上4条。