v

您的位置:VeryCD动漫电视动画

动漫资源事务区


《无头骑士异闻录》(Durarara!!)[全25集][Cartoon Network][英语版][704x396][AVI][TVRip]

  • 状态: 精华资源
  • 摘要:
    发行时间2011年6月26日
    语言英语
  • 时间: 2011/07/25 15:32:57 发布 | 2011/12/19 10:52:54 更新
  • 分类: 动漫  电视动画 

life_is_good

精华资源: 6571

全部资源: 7301

相关: 分享到新浪微博   转播到腾讯微博   分享到开心网   分享到人人   分享到QQ空间   订阅本资源RSS更新   美味书签  subtitle
该内容尚未提供权利证明,无法提供下载。
中文名无头骑士异闻录
英文名Durarara!!
别名デュラララ!!
资源格式TVRip
版本[全25集][Cartoon Network][英语版][704x396][AVI]
发行时间2011年6月26日
地区日本
语言英语
简介

IPB Image

【首播时间】 2011年6月26日
【字幕制作】 暂无


【内容介绍】

《无头骑士异闻录 DuRaRaRa!!》是由日本小说家成田良悟所写的轻小说作品,日文版由电击文库出版,中文版则由台湾角川出版、港澳地区由香港角川洲立代理销售。小说由ヤスダスズヒト(安田典生)作插画。在《月刊GFantasy》2009年5月号开始漫画化并连载。2009年7月宣布动画化,2010年1月开始播放,24集已完结。

以池袋为舞台,一个以向往非日常的少年、爱找碴的小混混、跟踪狂的电波系少女、以作情报贩子“为乐”的青年、专接不寻常病患的密医、迷上魔物的高中生以及骑着漆黑色机车的“无头骑士”等展开一连串不正常但爽快的恋爱故事。

英配版于2011年6月26日起于美国Cartoon Network下属的Adult Swim频道开始播出。

【STAFF】

导演:Takahiro Omori

【CAST】

英配:
Kari Wahlgren
Darrel Guilbeau
Bryce Papenbrook
Michelle Ruff
Yong Bosch
Crispin Freeman
Yuri Lowenthal

IPB Image

【视频截图】

IPB Image

IPB Image

IPB Image

IPB Image

【编码参数】

代码
General
Complete name                    : Durarara!! - 01 - First Word {C_P}.avi
Format                           : AVI
Format/Info                      : Audio Video Interleave
File size                        : 175 MiB
Duration                         : 22mn 27s
Overall bit rate                 : 1 090 Kbps
Writing library                  : VirtualDub build 34093/release

Video
ID                               : 0
Format                           : MPEG-4 Visual
Format settings, BVOP            : Yes
Format settings, QPel            : No
Format settings, GMC             : No warppoints
Format settings, Matrix          : Default (H.263)
Codec ID                         : DX50
Codec ID/Hint                    : DivX 5
Duration                         : 22mn 27s
Bit rate                         : 952 Kbps
Width                            : 704 pixels
Height                           : 396 pixels
Display aspect ratio             : 16:9
Frame rate                       : 23.976 fps
Color space                      : YUV
Chroma subsampling               : 4:2:0
Bit depth                        : 8 bits
Scan type                        : Progressive
Compression mode                 : Lossy
Bits/(Pixel*Frame)               : 0.142
Stream size                      : 153 MiB (87%)
Writing library                  : DivX 6.8.5 (UTC 2009-08-20)

Audio
ID                               : 1
Format                           : MPEG Audio
Format version                   : Version 1
Format profile                   : Layer 3
Mode                             : Joint stereo
Mode extension                   : MS Stereo
Codec ID                         : 55
Codec ID/Hint                    : MP3
Duration                         : 22mn 27s
Bit rate mode                    : Constant
Bit rate                         : 128 Kbps
Channel(s)                       : 2 channels
Sampling rate                    : 48.0 KHz
Compression mode                 : Lossy
Stream size                      : 20.6 MiB (12%)
Alignment                        : Split accross interleaves
Interleave, duration             : 42 ms (1.00 video frame)
Interleave, preload duration     : 500 ms
Writing library                  : LAME3.98r
Encoding settings                : -m j -V 4 -q 2 -lowpass 17 -b 128

正在读取……

这里是其它用户补充的资源(我也要补充):

暂无补充资源
正在加载,请稍等...

点击查看所有23网友评论

 

(?) [公告]留口水、评论相关规则 | [活动]每日签到 轻松领取电驴经验

    小贴士:
  1. 类似“顶”、“沙发”之类没有营养的文字,对勤劳贡献的楼主来说是令人沮丧的反馈信息。
  2. 提问之前请再仔细看一遍楼主的说明,或许是您遗漏了。
  3. 勿催片。请相信驴友们对分享是富有激情的,如果确有更新版本,您一定能搜索到。
  4. 请勿到处挖坑绊人、招贴广告。既占空间让人厌烦,又没人会搭理,于人于己都无利。
  5. 如果您发现自己的评论不见了,请参考以上4条。