v

您的位置:VeryCD动漫剧场动画

动漫资源事务区


《史酷比:墨西哥大脚怪》(Scooby-Doo! and the Monster of Mexico)[640x464][AVI][DVDRip]

  • 状态: 精华资源
  • 摘要:
    发行时间2003年09月30日
    语言英语
  • 时间: 2011/07/06 11:36:11 发布 | 2011/07/07 12:25:29 更新
  • 分类: 动漫  剧场动画 

life_is_good

精华资源: 6571

全部资源: 7301

相关: 分享到新浪微博   转播到腾讯微博   分享到开心网   分享到人人   分享到QQ空间   订阅本资源RSS更新   美味书签  subtitle
该内容尚未提供权利证明,无法提供下载。
中文名史酷比:墨西哥大脚怪
英文名Scooby-Doo! and the Monster of Mexico
资源格式DVDRip
版本[640x464][AVI]
发行时间2003年09月30日
导演Scott Jeralds
地区美国
语言英语
简介

IPB Image

【首播时间】 2003年
【字幕制作】 暂无


【内容介绍】 (转自开眼电影网)

佛瑞德的笔友邀请他一起到墨西哥参加当地的鬼节追思大会,叔比狗、黛芬、威玛、薛吉当然也兴高采烈的跟去玩个痛快。

没想到,城里却出现了一隻高大的绿眼怪物!所有观光客都被吓跑了,而叔比狗和伙伴的朋友也必须卖掉旅馆来应付最近的萧条,都是那个大怪物害的!不过怪物有留下线索,到底这些代表著什么惊人秘密呢?

【STAFF】

导演:Scott Jeralds
编剧:Douglas Wood
音乐:Rich Dickerson
Gigi Meroni
制片:Margaret M. Dean
Scott Jeralds

【CAST】

Casey Kasem
Frank Welker
Nicole Jaffe
Heather North
Jesse Borrego

【编码参数】

代码
General
Complete name                    : Scooby.Doo.and.the.Monster.of.Mexico.2003.DVDRip.XViD-CFE.avi
Format                           : AVI
Format/Info                      : Audio Video Interleave
File size                        : 674 MiB
Duration                         : 1h 12mn
Overall bit rate                 : 1 295 Kbps
Writing application              : VirtualDubMod 1.5.1.1a (build 1639/release)
Writing library                  : VirtualDubMod build 1639/release

Video
ID                               : 0
Format                           : MPEG-4 Visual
Format settings, BVOP            : Yes
Format settings, QPel            : No
Format settings, GMC             : No warppoints
Format settings, Matrix          : Default (H.263)
Codec ID                         : XVID
Codec ID/Hint                    : XviD
Duration                         : 1h 12mn
Bit rate                         : 1 155 Kbps
Width                            : 640 pixels
Height                           : 464 pixels
Display aspect ratio             : 1.379
Frame rate                       : 23.976 fps
Resolution                       : 8 bits
Scan type                        : Progressive
Bits/(Pixel*Frame)               : 0.162
Stream size                      : 601 MiB (89%)

Audio
ID                               : 1
Format                           : MPEG Audio
Format version                   : Version 1
Format profile                   : Layer 3
Mode                             : Joint stereo
Format_Settings_ModeExtension    : MS Stereo
Codec ID                         : 55
Codec ID/Hint                    : MP3
Duration                         : 1h 12mn
Bit rate mode                    : Variable
Bit rate                         : 128 Kbps
Channel(s)                       : 2 channels
Sampling rate                    : 48.0 KHz
Stream size                      : 66.6 MiB (10%)
Alignment                        : Aligned on interleaves
Interleave, duration             : 24 ms (0.58 video frame)
Interleave, preload duration     : 138 ms
Writing library                  : LAME3.93
Encoding settings                : -m j -V 4 -q 2 -lowpass 17.5 --abr 128

正在读取……

这里是其它用户补充的资源(我也要补充):

暂无补充资源
正在加载,请稍等...

点击查看所有7网友评论

 

(?) [公告]留口水、评论相关规则 | [活动]每日签到 轻松领取电驴经验

    小贴士:
  1. 类似“顶”、“沙发”之类没有营养的文字,对勤劳贡献的楼主来说是令人沮丧的反馈信息。
  2. 提问之前请再仔细看一遍楼主的说明,或许是您遗漏了。
  3. 勿催片。请相信驴友们对分享是富有激情的,如果确有更新版本,您一定能搜索到。
  4. 请勿到处挖坑绊人、招贴广告。既占空间让人厌烦,又没人会搭理,于人于己都无利。
  5. 如果您发现自己的评论不见了,请参考以上4条。