v

您的位置:VeryCD动漫剧场动画

动漫资源事务区


《巴布工程师:恐龙大挖掘剧场版》(Bob the Builder: The Big Dino Dig The Movie)[720x404][AVI][DVDRip]

  • 状态: 精华资源
  • 摘要:
    发行时间2011年06月14日
    语言英语
  • 时间: 2011/07/06 11:02:02 发布 | 2011/07/06 15:17:49 更新
  • 分类: 动漫  剧场动画 

life_is_good

精华资源: 6571

全部资源: 7301

相关: 分享到新浪微博   转播到腾讯微博   分享到开心网   分享到人人   分享到QQ空间   订阅本资源RSS更新   美味书签  subtitle
该内容尚未提供权利证明,无法提供下载。
中文名巴布工程师:恐龙大挖掘剧场版
英文名Bob the Builder: The Big Dino Dig The Movie
资源格式DVDRip
版本[720x404][AVI]
发行时间2011年06月14日
地区美国
语言英语
简介

IPB Image

【首播时间】 2011年
【字幕制作】 暂无


【内容介绍】

准备好一场新的恐龙冒险了吗?巴布和他的伙伴们开始了一场全新的侏罗纪冒险。巴布、施库伯、蒂兹,以及新成员拉布,永远充满了微笑和必胜的信念。他们凭借着乐观的思想,解决问题的能力,团队合作精神,完成了各种工程。(文/life_is_good@YDY)

【STAFF】

导演:Brian Little
Liz Whitaker
Sarah Ball
编剧:Chris Trengove
Diane Redmond
Jimmy Hibbert
Keith Chapman
Simon Jowett

【CAST】

Neil Morrissey
Rob Rackstraw
Greg Proops
Kate Harbour
Rupert Degas

【剧照】

IPB Image

IPB Image

IPB Image

【编码参数】

代码
General

Complete name : Bob.The.Builder.The.Big.Dino.Dig.The.Movie.2011.DVDRip.XviD.AC3-TDP
Format : AVI
Format/Info : Audio Video Interleave
File size : 699 MiB
Duration : 1h 0mn
Overall bit rate : 1 609 Kbps
Writing application : MEncoder version 4.0.0 building on 20100917


Video

Format : MPEG-4 Visual
Format profile : Simple@L1
Format settings, BVOP : No
Format settings, QPel : No
Format settings, GMC : No warppoints
Format settings, Matrix : Default (H.263)
Codec ID : DX50
Codec ID/Hint : DivX 5
Duration : 1h 0mn
Bit rate : 1 347 Kbps
Width : 720 pixels
Height : 404 pixels
Display aspect ratio : 16:9
Frame rate : 29.970 fps
Color space : YUV
Chroma subsampling : 4:2:0
Bit depth : 8 bits
Scan type : Progressive
Compression mode : Lossy
Bits/(Pixel*Frame) : 0.154
Stream size : 585 MiB (84%)
Writing library : DigiArty AV Encoder Core

Audio

Format : AC-3
Format/Info : Audio Coding 3
Mode extension : CM (complete main)
Codec ID : 2000
Duration : 1h 0mn
Bit rate mode : Constant
Bit rate : 256 Kbps
Channel(s) : 2 channels
Channel positions : Front: L R
Sampling rate : 48.0 KHz
Bit depth : 16 bits
Compression mode : Lossy
Stream size : 111 MiB (16%)
Alignment : Split across interleaves
Interleave, duration : 500 ms (14.98 video frames)
Interleave, preload duration : 500 ms

正在读取……

这里是其它用户补充的资源(我也要补充):

暂无补充资源
正在加载,请稍等...

点击查看所有12网友评论

 

(?) [公告]留口水、评论相关规则 | [活动]每日签到 轻松领取电驴经验

    小贴士:
  1. 类似“顶”、“沙发”之类没有营养的文字,对勤劳贡献的楼主来说是令人沮丧的反馈信息。
  2. 提问之前请再仔细看一遍楼主的说明,或许是您遗漏了。
  3. 勿催片。请相信驴友们对分享是富有激情的,如果确有更新版本,您一定能搜索到。
  4. 请勿到处挖坑绊人、招贴广告。既占空间让人厌烦,又没人会搭理,于人于己都无利。
  5. 如果您发现自己的评论不见了,请参考以上4条。