v

您的位置:VeryCD动漫电视动画

动漫资源事务区


《欢迎加入NHK!/欢迎来到NHK!》(Welcome_to_the_N.H.K)[3DH字幕组]24集全(含音乐及游戏)[RMVB]

  • 状态: 精华资源
  • 摘要:
    发行时间2007年7月
    语言日语
  • 时间: 2011/07/05 13:18:03 发布 | 2011/07/08 11:41:22 更新
  • 分类: 动漫  电视动画 

lsc00700

精华资源: 1

全部资源: 1

相关: 分享到新浪微博   转播到腾讯微博   分享到开心网   分享到人人   分享到QQ空间   订阅本资源RSS更新   美味书签  subtitle
该内容尚未提供权利证明,无法提供下载。
中文名欢迎加入NHK!/欢迎来到NHK!
英文名Welcome_to_the_N.H.K
资源格式RMVB
版本[3DH字幕组]24集全(含音乐及游戏)
发行时间2007年7月
导演山本裕介
地区日本
语言日语
简介

IPB Image

【首播时间】2007年7月新番
【字幕制作】3DH字幕组,内嵌字幕


【内容介绍】

巨大组织的阴谋是确实存在的!
被大学退学以后,外出时会去的地方只剩下便利超商。
朋友的数量是零。
一天之中有16个小时都在睡。
过著这样的生活已经迈向第四年的佐藤达广、22岁。

他终於察觉到了。
不管是大学被退学、找不到工作。
还是出不了六张榻榻米大的公寓房间大门的事。
全都是巨大的邪恶组织、N.H.K(日本家里蹲协会)所乾的好事!

在这样的佐藤君面前,突然出现的美少女中原岬。

「你已被选中来参加我的计画了」

说著这话的小岬所拿出的是…。能帮我脱离现在的生活、以回归社会为目标的
令人不敢置信的契约书!
究竟、佐藤君是否能够打破现在这种看不到未来的现况?
还有、小岬的真面目及其目的为何?
难道这也是N.H.K的阴谋吗!?

STAFF:

原作:泷本龙彦×大岩KENDI「月刊少年S」连载,角川comic.S刊)
系列构成.剧本:西园悟
人物设计:右凑具央 吉田隆彦
总作画监督:吉田隆彦 下谷智之
音乐:珍珠兄弟
音乐制片人:福田正夫
音乐制作:Victor娱乐
音响监督:盐屋翼
音响制作:Omnibus promotion
编辑:三嶋章纪
美术:复活节工作室
摄影监督:北村直树
色彩设计:内林裕美
动画片制作:GONZO
导演:山本裕介
制作:欢迎加入NHK!制作委员会

CAST:

佐藤达广:小泉丰
中原岬:牧野由依
山崎薰:阪口大助
瞳(学长):小林沙苗
小林惠(委员长):早水莉纱

说明

本想下载这里的收藏的(上面的简介就是出于此)http://www.VeryCD.com/topics/139380/
无奈好像无源了,那是电驴上唯一完整的24集资源了...
以前用bt下载的,在07年应该算中规中矩的质量了,好处是很全!游戏(special里面的true word),音乐都有。
音乐有两个好像和别人的发布重复了,不过杯具的是那也没啥源,放在一起好上传..

宅男必看,脱宅用...救赎啊...本着传教的精神,所以想把自己手头有的分享下。
上传速度有点慢,100KB/s-133KB/s,从上午10点到晚上12点会开机上传,还好不大,2G多。持久性应该很好,这东西下载快2年了,虽然放到电驴里面共享,但是1个字节都没共享出去过,原来要先发布才行。
---------------------------------------------------

2011年7月26日 补记
这里 http://www.VeryCD.com/topics/139380/
的mkv,拖了20天,还有5集就下完了,所以帮着补源了,安心去下载吧,质量可比我这个好太多了。


ps:11年7月新番推荐 白兔糖 啊!!
---------------------------------------------------
那个游戏,我没有运行成功过,不知道是不是和win7不兼容,点开后就爆内存,卡死了,一直未响应。
原资源中的游戏图↓↓
IPB Image
IPB Image
=============================

画面质量应该比在线看好= =!
这是其中比较好的一集的情况

L:\视频\欢迎来到NHK\[3DH][欢迎来到NHK][01-24完(含音乐及游戏)][GB][RV9]\[3DH][欢迎来到NHK][GB][RV9]15.rmvb
General
Complete name : L:\视频\欢迎来到NHK\[3DH][欢迎来到NHK][01-24完(含音乐及游戏)][GB][RV9]\[3DH][欢迎来到NHK][GB][RV9]15.rmvb
Format : RealMedia
File size : 114 MiB
Duration : 23mn 59s
Overall bit rate : 647 Kbps
Performer : fillerfish
Video #1
ID : 1
Format : RealVideo 4
Codec ID : RV40
Codec ID/Info : Based on AVC (H.264), Real Player 9
Duration : 23mn 59s
Bit rate : 550 Kbps
Width : 704 pixels
Height : 396 pixels
Display aspect ratio : 16:9
Frame rate : 23.000 fps
Resolution : 12 bits
Bits/(Pixel*Frame) : 0.086
Stream size : 94.5 MiB (83%)
Audio #0
ID : 0
Format : Cooker
Codec ID : cook
Codec ID/Info : Based on G.722.1, Real Player 6
Duration : 23mn 59s
Bit rate : 96.5 Kbps
Channel(s) : 2 channels
Sampling rate : 44.1 KHz
Resolution : 16 bits
Stream size : 16.6 MiB (15%)
================================

转载信息,原资源里面的,没写转载要求什么的,我想是不是把他们网址和宣传图贴一下就可以了。
http://www.3dhgame.cn
http://bbs.3dhgame.cn
http://bt.3dhgame.cn
IPB Image
IPB Image
IPB Image

正在读取……

这里是其它用户补充的资源(我也要补充):

暂无补充资源
正在加载,请稍等...

点击查看所有31网友评论

 

(?) [公告]留口水、评论相关规则 | [活动]每日签到 轻松领取电驴经验

    小贴士:
  1. 类似“顶”、“沙发”之类没有营养的文字,对勤劳贡献的楼主来说是令人沮丧的反馈信息。
  2. 提问之前请再仔细看一遍楼主的说明,或许是您遗漏了。
  3. 勿催片。请相信驴友们对分享是富有激情的,如果确有更新版本,您一定能搜索到。
  4. 请勿到处挖坑绊人、招贴广告。既占空间让人厌烦,又没人会搭理,于人于己都无利。
  5. 如果您发现自己的评论不见了,请参考以上4条。