v

您的位置:VeryCD动漫剧场动画

动漫资源事务区


《魔女宅急便》(Kiki's Delivery Service)[外挂简体中文字幕][MKV][720P]

  • 状态: 精华资源
  • 摘要:
    发行时间1989年
    语言日语
  • 时间: 2011/06/22 17:27:41 发布 | 2011/06/23 15:21:23 更新
  • 分类: 动漫  剧场动画 

life_is_good

精华资源: 6571

全部资源: 7301

相关: 分享到新浪微博   转播到腾讯微博   分享到开心网   分享到人人   分享到QQ空间   订阅本资源RSS更新   美味书签  subtitle
该内容尚未提供权利证明,无法提供下载。
中文名魔女宅急便
英文名Kiki's Delivery Service
别名魔女の宅急便
资源格式720P
版本[外挂简体中文字幕][MKV]
发行时间1989年
地区日本
语言日语
简介

IPB Image

【首播时间】 1989年
【字幕制作】 外挂简体中文字幕


【内容介绍】

引用
转自HDChina
  13岁的小魔女琪琪带着宠物黑猫吉吉,在家人的祝福下展开了一段修行之旅!她选择一个靠海的城市作为落脚的之地,在这里她遇见了好心的面包店老板娘,也邂逅了对飞行充满梦想的朋友柯力普。琪琪寄住在面包店里,并发挥所长骑着扫帚充当快递,过着忙碌充实的日子,然而有一天,她的魔法却突然消失,无法顺利飞行,沮丧的琪琪如何重拾信心,恢复魔法呢?

幕后制作
本片改编自角野荣子的同名小说,描述了一个小魔女在大都市中学会自立的故事。影片塑造了一个活泼可爱的少女形象,她穿着黑裙子头上扎着一个鲜红的大蝴蝶结,心地善良,乐于助人,相当具有亲和力,让人在不知不觉中随着她成长经历的每一个脚步或喜或忧。剧中其它形形色色的登场人物也各具魅力,有慈祥的老奶奶、风趣的漫画家、豪爽的女主人、执着于梦想的少年……影片画面明丽优美,音乐动人,是一部动画杰作。本片是1989年最卖座的日本本土电影。

【STAFF】

导演: 宫崎骏 Hayao Miyazaki
配乐: 久石让 Joe Hisaishi

【CAST】

高山南 Minami Takayama ....Kiki/Ursula (voice)
佐久间玲 Rei Sakuma ....Jiji (voice)
户田惠子 Keiko Toda ....Osono (voice)
山口胜平 Kappei Yamaguchi ....Tombo (voice)
信泽三惠子 Mieko Nobusawa ....Kokiri, Kiki no haha(Kiki's mummy) (voice)
三浦浩一 Koichi Miura ....Okino, Kiki no chichi (Kiki's daddy) (voice)
加藤治子 Haruko Kato ....Rô-fujin (Madame) (voice)
关弘子 Hiroko Seki ....Barsa (Bertha) (voice)
渊崎由里子 Yuriko Fuchizaki ....Ketto (voice)
山寺宏一 Kôichi Yamadera ....Bakery worker, policeman(voice)
井上喜久子 Kikuko Inoue ....Beautiful designer girl (voice)
小林裕子 Yûko Kobayashi ....Young sempai witch (voice)
土井美加 Mika Doi ....Ketto's mother (voice)
土师孝也 Takaya Hashi ....Ketto's father (voice)
坂本千夏 Chika Sakamoto ....Baby (voice)
辻亲八 Shinbachi Tsuji ....(voice)
丸山裕子 Yûko Maruyama ....Additional Voices (voice)
大塚明夫 Akio Ôtsuka ....Additional Voices (voice)
西村知道 Tomomichi Nishimura ....Additional Voices (voice)

【编码参数】

代码
General
     Complete name : E:\Kiki's.Delivery.Service.1989.720p.HDTV.x264\Kiki's.Delivery.Service.1989.720p.HDTV.x264.mkv
     Format : Matroska
     File size : 3.10 GiB
     Duration : 1h 43mn
     Overall bit rate : 4 308 Kbps
     Encoded date : UTC 2010-08-28 21:45:21
     Writing application : mkvmerge v4.2.0 ('No Talking') built on Jul 28 2010 18:38:23
     Writing library : libebml v1.0.0 + libmatroska v1.0.0
  Video #1
     ID : 1
     Format : AVC
     Format/Info : Advanced Video Codec
     Format profile : High@L4.0
     Format settings, CABAC : Yes
     Format settings, ReFrames : 8 frames
     Muxing mode : Container profile=Unknown@4.0
     Codec ID : V_MPEG4/ISO/AVC
     Duration : 1h 42mn
     Bit rate : 3 454 Kbps
     Nominal bit rate : 3 538 Kbps
     Width : 1 280 pixels
     Height : 720 pixels
     Display aspect ratio : 16:9
     Frame rate : 23.976 fps
     Resolution : 8 bits
     Colorimetry : 4:2:0
     Scan type : Progressive
     Bits/(Pixel*Frame) : 0.156
     Stream size : 2.48 GiB (80%)
     Title : Mux by Pitt@Sk8
     Writing library : x264 core 104 r1703 cd21d05
     Encoding settings : cabac=1 / ref=8 / deblock=1:0:0 / analyse=0x3:0x133 / me=umh / subme=7 / psy=0 / mixed_ref=0 / me_range=24 / chroma_me=1 / trellis=2 / 8x8dct=1 / cqm=0 / deadzone=21,11 / fast_pskip=0 / chroma_qp_offset=0 / threads=2 / sliced_threads=0 / nr=0 / decimate=0 / interlaced=0 / constrained_intra=0 / bframes=3 / b_pyramid=0 / b_adapt=2 / b_bias=4 / direct=1 / weightb=1 / open_gop=0 / weightp=2 / keyint=240 / keyint_min=23 / scenecut=40 / intra_refresh=0 / rc=2pass / mbtree=0 / bitrate=3538 / ratetol=1.0 / qcomp=0.60 / qpmin=10 / qpmax=35 / qpstep=4 / cplxblur=20.0 / qblur=0.5 / ip_ratio=1.30 / pb_ratio=1.20 / aq=1:1.00
  Audio #2
     ID : 2
     Format : AC-3
     Format/Info : Audio Coding 3
     Codec ID : A_AC3
     Duration : 1h 43mn
     Bit rate mode : Constant
     Bit rate : 384 Kbps
     Channel(s) : 6 channels
     Channel positions : Front: L C R, Surround: L R, LFE
     Sampling rate : 48.0 KHz
     Video delay : 312ms
     Stream size : 283 MiB (9%)
     Title : Italiano AC3 5.1
     Language : Italian
  Audio #3
     ID : 3
     Format : AC-3
     Format/Info : Audio Coding 3
     Codec ID : A_AC3
     Duration : 1h 43mn
     Bit rate mode : Constant
     Bit rate : 384 Kbps
     Channel(s) : 6 channels
     Channel positions : Front: L C R, Surround: L R, LFE
     Sampling rate : 48.0 KHz
     Video delay : 312ms
     Stream size : 283 MiB (9%)
     Title : Giapponese AC3 5.1
     Language : Japanese

正在读取……

这里是其它用户补充的资源(我也要补充):

暂无补充资源
正在加载,请稍等...

点击查看所有51网友评论

 

(?) [公告]留口水、评论相关规则 | [活动]每日签到 轻松领取电驴经验

    小贴士:
  1. 类似“顶”、“沙发”之类没有营养的文字,对勤劳贡献的楼主来说是令人沮丧的反馈信息。
  2. 提问之前请再仔细看一遍楼主的说明,或许是您遗漏了。
  3. 勿催片。请相信驴友们对分享是富有激情的,如果确有更新版本,您一定能搜索到。
  4. 请勿到处挖坑绊人、招贴广告。既占空间让人厌烦,又没人会搭理,于人于己都无利。
  5. 如果您发现自己的评论不见了,请参考以上4条。