v

您的位置:VeryCD资料其它资料

资料资源事务区


《因为有你》北京交通大学原创电影[MKV]

  • 状态: 精华资源
  • 摘要:
    发行时间2011年
    对白语言普通话
    文字语言简体中文
  • 时间: 2011/06/20 20:29:02 发布 | 2011/06/20 21:34:51 更新
  • 分类: 资料  其它资料 

xiaochenjia

精华资源: 673

全部资源: 675

相关: 分享到新浪微博   转播到腾讯微博   分享到开心网   分享到人人   分享到QQ空间   订阅本资源RSS更新   美味书签  subtitle
该内容尚未提供权利证明,无法提供下载。
中文名因为有你
版本北京交通大学原创电影[MKV]
发行时间2011年
地区大陆
对白语言普通话
文字语言简体中文
简介

IPB Image


资源简介

【片 名】 因为有你
【年  代】 2011
【国  家】 中国
【类  别】 剧情
【语  言】 普通话
【片  长】 47 Mins
【导  演】 宋文
【演 员 表】
卓琦 卢童凯
李翔 张坦
吴思雨 牛潇彬
谭声 汤昊
15楼路人 梁佳昱
路人MM甲 孙希
路人MM乙 吴长莘
摄影师 王涛
面试官男 岳雨辰
面试官女 李滢洁
面试者甲 张旭
面试者乙 宋文
实验同学 杨振刚
电气楼路人甲 张悦
电气楼路人乙 柏丹丹

【策 划】 刘俊杉
【制 片】 苏晓霞 杨振刚
【助 理】 张旭 梁佳昱
【摄 影】 宋文
【剪 辑】 宋文
【配 乐】 宋文
【字 幕】 谢雨辰 董路超
【道 具】 苏晓霞
【化 妆】 张悦
【剧 照】 王涛
【海 报】 王涛


【简  介】 

因为我们是兄弟,所以我们一起打球,一起游戏;因为我们是兄弟,所以我无条件的顶你;也因为我们是兄弟,所以... ...

卓琦考研失利,正在郁闷的时候舍友李翔将一个工作的机会摆在他面前,两个人一起去面试却为何起了争执?

吴思雨看着那个打篮球的背影“再不说出来,也许就这样错过了”她举起了手里的篮球... ...
谭生保研成功,可是身边的朋友却状况连连,他能为他们做什么?

代码

   General
      Complete name : ..\[北京交通大学原创电影].因为有你.2011.720x576.mkv
      Format : Matroska
      File size : 1.20 GiB
      Duration : 47mn 15s
      Overall bit rate : 3 649 Kbps
      Encoded date : UTC 2011-06-17 14:04:43
      Writing application : mkvmerge v4.8.0 ('I Got The...') 编译于 May 24 2011 03:12:58
      Writing library : libebml v1.2.0 + libmatroska v1.1.0
   Video #1
      ID : 1
      Format : MPEG Video
      Format version : Version 2
      Format profile : Main@Main
      Format settings, Matrix : Default
      Codec ID : V_MPEG2
      Codec ID/Info : MPEG 1 or 2 Video
      Duration : 47mn 15s
      Bit rate mode : Variable
      Bit rate : 3 448 Kbps
      Nominal bit rate : 4 000 Kbps
      Width : 720 pixels
      Height : 576 pixels
      Display aspect ratio : 5:4
      Original display aspect ratio : 16:9
      Frame rate : 25.000 fps
      Standard : PAL
      Colorimetry : 4:2:0
      Scan type : Progressive
      Bits/(Pixel*Frame) : 0.333
      Stream size : 1.14 GiB (95%)
      Title : videomain
      Language : Chinese
   Audio #2
      ID : 2
      Format : MPEG Audio
      Format version : Version 1
      Format profile : Layer 2
      Codec ID : A_MPEG/L2
      Codec ID/Hint : MP2
      Duration : 47mn 15s
      Bit rate mode : Constant
      Bit rate : 128 Kbps
      Channel(s) : 2 channels
      Sampling rate : 48.0 KHz
      Resolution : 16 bits
      Stream size : 43.3 MiB (4%)
      Title : audiomain
      Language : Chinese
   Text #3
      ID : 3
      Format : UTF-8
      Codec ID : S_TEXT/UTF8
      Codec ID/Info : UTF-8 Plain Text
      Title : srtmain
      Language : Chinese


引用
资源来自网络收集 未经过一 一的质量 安全等检测
只是把收集的资源和各位驴友分享 仅作网络学习交流使用 请勿用于商业用途 !
希望各位下载的驴友能多多参与分流保源 happy.gif

IPB Image
IPB Image
IPB Image
IPB Image
IPB Image
IPB Image

正在读取……

这里是其它用户补充的资源(我也要补充):

暂无补充资源
正在加载,请稍等...

点击查看所有35网友评论

 

(?) [公告]留口水、评论相关规则 | [活动]每日签到 轻松领取电驴经验

    小贴士:
  1. 类似“顶”、“沙发”之类没有营养的文字,对勤劳贡献的楼主来说是令人沮丧的反馈信息。
  2. 提问之前请再仔细看一遍楼主的说明,或许是您遗漏了。
  3. 勿催片。请相信驴友们对分享是富有激情的,如果确有更新版本,您一定能搜索到。
  4. 请勿到处挖坑绊人、招贴广告。既占空间让人厌烦,又没人会搭理,于人于己都无利。
  5. 如果您发现自己的评论不见了,请参考以上4条。