v

您的位置:VeryCD资料其它资料

资料资源事务区


《再见226》合肥工业大学校园原创电影[AVI]

  • 状态: 精华资源
  • 摘要:
    发行时间2011年
    对白语言普通话
    文字语言简体中文
  • 时间: 2011/06/20 20:11:13 发布 | 2011/06/20 20:16:09 更新
  • 分类: 资料  其它资料 

xiaochenjia

精华资源: 673

全部资源: 675

相关: 分享到新浪微博   转播到腾讯微博   分享到开心网   分享到人人   分享到QQ空间   订阅本资源RSS更新   美味书签  subtitle
该内容尚未提供权利证明,无法提供下载。
中文名再见226
版本合肥工业大学校园原创电影[AVI]
发行时间2011年
地区大陆
对白语言普通话
文字语言简体中文
简介

IPB Image

资源简介

片名: 再见226
时间: 2011
国家: 中国
类别: 校园/青春/爱情
语言: 普通话
文件格式: AVI
片长: 85 Mins
导演: 黄玲玲

主演: 李慧珺 ——夏芊芊
卢亚楠 ——马景哲
戴顾洵 ——莫 冉
范崇鑫 ——薛丽丽
邵忆荣 ——苏筱雅
王慧娟 ——许静初
蒋 露——蒋小美
梁 丽——叶丹妮
潘建康 ——宋 巍
马旭笳 ——吴 凯
刘全昌 ——刘 彦
董自强 ——赵天庆
祈 全——黄臣龙
马 鑫——雷 阳
付 睿——魏东东


剧情简介:

夏芊芊是来自西北的农村的女孩,07年高考服从调剂意外被从未听闻过的合工大录取。背负中学时代真挚朦胧感情的创伤和差强人意的志愿,在懵懂中开始了大学生活。偶遇同为老乡的马景哲,二人缘分自此开始。马对夏心动,夏却恋上成熟有风度的学长宋巍。室友苏是漂亮骄傲的江南女子,两人在美好的相处中却难免摩擦,又遇院花莫冉这个集众人羡慕嫉妒恨于一身的传奇女生,发现生活原来可以有另外一番面目。与宋淡漠之后与马因种种因素未能有情人终成眷属,留下遗憾,也留下无限可能。经历了友情的磨练启迪,爱情的浸润洗礼,夏不再是四年前青涩的小女生,而是成长为成熟干练的女青年。

毕业在即,面对现实的重压,他们苦苦思索,在不完善的社会体制下寻求个人出路的最佳抉择,对自己,对生活,对社会都有了新的认识。

引用
资源转自葡萄

IPB Image

IPB Image

IPB Image

IPB Image
视频参数信息:

代码

   General
     Complete name :..\再见226.2011.720P.XviD-合肥工业大学原创电影.avi
      Format : AVI
      Format/Info : Audio Video Interleave
      Format profile : OpenDML
      File size : 2.01 GiB
      Duration : 1h 25mn
      Overall bit rate : 3 375 Kbps
      Writing application : MEncoder SVN-r30881(20100311-gcc4.3.3)
      Writing library : MPlayer
   Video #0
      ID : 0
      Format : MPEG-4 Visual
      Format profile : AdvancedSimple@L5
      Format settings, BVOP : Yes
      Format settings, QPel : No
      Format settings, GMC : No warppoints
      Format settings, Matrix : Default (H.263)
      Codec ID : XVID
      Codec ID/Hint : XviD
      Duration : 42mn 23s
      Bit rate : 6 508 Kbps
      Width : 1 280 pixels
      Height : 720 pixels
      Display aspect ratio : 16:9
      Frame rate : 25.000 fps
      Resolution : 24 bits
      Colorimetry : 4:2:0
      Scan type : Progressive
      Bits/(Pixel*Frame) : 0.282
      Stream size : 1.93 GiB (96%)
      Writing library : XviD 1.2.1 (UTC 2008-12-04)
   Audio #1
      ID : 1
      Format : MPEG Audio
      Format version : Version 1
      Format profile : Layer 3
      Codec ID : 55
      Codec ID/Hint : MP3
      Duration : 1h 25mn
      Bit rate mode : Constant
      Bit rate : 128 Kbps
      Channel(s) : 2 channels
      Sampling rate : 44.1 KHz
      Resolution : 16 bits
      Video delay : 40ms
      Stream size : 78.1 MiB (4%)
      Alignment : Aligned on interleaves
      Interleave, duration : 26 ms (0.65 video frame)
      Interleave, preload duration : 522 ms


引用
资源来自网络收集 未经过一 一的质量 安全等检测
只是把收集的资源和各位驴友分享 仅作网络学习交流使用 请勿用于商业用途 !
希望各位下载的驴友能多多参与分流保源 happy.gif

正在读取……

这里是其它用户补充的资源(我也要补充):

暂无补充资源
正在加载,请稍等...

点击查看所有33网友评论

 

(?) [公告]留口水、评论相关规则 | [活动]每日签到 轻松领取电驴经验

    小贴士:
  1. 类似“顶”、“沙发”之类没有营养的文字,对勤劳贡献的楼主来说是令人沮丧的反馈信息。
  2. 提问之前请再仔细看一遍楼主的说明,或许是您遗漏了。
  3. 勿催片。请相信驴友们对分享是富有激情的,如果确有更新版本,您一定能搜索到。
  4. 请勿到处挖坑绊人、招贴广告。既占空间让人厌烦,又没人会搭理,于人于己都无利。
  5. 如果您发现自己的评论不见了,请参考以上4条。