v

您的位置:VeryCD动漫电视动画

动漫资源事务区


《毛毛的世界:开心宠物手册》(Elmo's World: Pets!)[512x384][AVI][DVDRip]

  • 状态: 精华资源
  • 摘要:
    发行时间2006年
    语言英语
  • 时间: 2011/05/27 15:59:53 发布 | 2011/05/27 16:48:18 更新
  • 分类: 动漫  电视动画 

life_is_good

精华资源: 6571

全部资源: 7301

相关: 分享到新浪微博   转播到腾讯微博   分享到开心网   分享到人人   分享到QQ空间   订阅本资源RSS更新   美味书签  subtitle
该内容尚未提供权利证明,无法提供下载。
中文名毛毛的世界:开心宠物手册
英文名Elmo's World: Pets!
资源格式DVDRip
版本[512x384][AVI]
发行时间2006年
地区美国
语言英语
简介

IPB Image

【首播时间】 2006年
【字幕制作】 暂无


【内容介绍】

毛毛走进宠物的世界。学习责任心和如何照顾家里的宠物狗、猫甚至鱼。毛毛学习如何喂养宠物,给宠物洗澡以及带宠物区看医生。(文/life_is_good@YDY)

Join Elmo as he explores the world of pets. Learn about responsibility and how to care for the family dog, cat, and even Elmo's fish, Dorothy. Find out about feeding, bathing, taking your pet to the doctor. SESAME STREET's most popular character helps preschoolers learn how to care for their pets in this fun-filled episode of ELMO'S WORLD. The lovable red puppet steers kids toward responsible habits like feeding and bathing their pets while sharing stories about how animals enrich our lives.

【STAFF】

导演:Ken Diego
Victor DiNapoli
Jim Martin
Edward May
Lisa Simon

【CAST】

Pam Arciero
Alison Bartlett
Fran Brill
Kevin Clash ... Elmo
Bruce Connelly
Stephanie D'Abruzzo
Alice Dinnean
Bill Irwin ... Mr. Noodle
Eric Jacobson
Michael Jeter ... Mr. Noodle
John Kennedy
Peter Linz
Rick Lyon
Jim Martin
Joey Mazzarino
Martin P. Robinson
John Tartaglia
Matt Vogel

代码
General
Complete name                    : Elmos.World.Pets.(2006).FS.DVDRip.XViD-SPRiNTER.avi
Format                           : AVI
Format/Info                      : Audio Video Interleave
File size                        : 700 MiB
Duration                         : 52mn 53s
Overall bit rate                 : 1 849 Kbps
Writing application              : Nandub v1.0rc2
Writing library                  : Nandub build 1852/release

Video
ID                               : 0
Format                           : MPEG-4 Visual
Format profile                   : Advanced Simple@L5
Format settings, BVOP            : No
Format settings, QPel            : No
Format settings, GMC             : No warppoints
Format settings, Matrix          : Default (H.263)
Codec ID                         : XVID
Codec ID/Hint                    : XviD
Duration                         : 52mn 53s
Bit rate                         : 1 688 Kbps
Width                            : 512 pixels
Height                           : 384 pixels
Display aspect ratio             : 4:3
Frame rate                       : 23.976 fps
Color space                      : YUV
Chroma subsampling               : 4:2:0
Bit depth                        : 8 bits
Scan type                        : Progressive
Compression mode                 : Lossy
Bits/(Pixel*Frame)               : 0.358
Stream size                      : 639 MiB (91%)
Writing library                  : XviD 1.1.2 (UTC 2006-11-01)

Audio
ID                               : 1
Format                           : MPEG Audio
Format version                   : Version 1
Format profile                   : Layer 3
Codec ID                         : 55
Codec ID/Hint                    : MP3
Duration                         : 52mn 53s
Bit rate mode                    : Variable
Bit rate                         : 149 Kbps
Minimum bit rate                 : 40.0 Kbps
Channel(s)                       : 2 channels
Sampling rate                    : 48.0 KHz
Compression mode                 : Lossy
Stream size                      : 56.3 MiB (8%)
Alignment                        : Aligned on interleaves
Interleave, duration             : 24 ms (0.58 video frame)
Interleave, preload duration     : 143 ms
Writing library                  : LAME3.95
Encoding settings                : -m s -V 4 -q 3 -lowpass 18 --vbr-old -b 40

正在读取……

这里是其它用户补充的资源(我也要补充):

暂无补充资源
正在加载,请稍等...

点击查看所有9网友评论

 

(?) [公告]留口水、评论相关规则 | [活动]每日签到 轻松领取电驴经验

    小贴士:
  1. 类似“顶”、“沙发”之类没有营养的文字,对勤劳贡献的楼主来说是令人沮丧的反馈信息。
  2. 提问之前请再仔细看一遍楼主的说明,或许是您遗漏了。
  3. 勿催片。请相信驴友们对分享是富有激情的,如果确有更新版本,您一定能搜索到。
  4. 请勿到处挖坑绊人、招贴广告。既占空间让人厌烦,又没人会搭理,于人于己都无利。
  5. 如果您发现自己的评论不见了,请参考以上4条。