v

您的位置:VeryCD动漫剧场动画

动漫资源事务区


《跆拳道熊猫》(Chop Kick Panda)[720x400][AVI][DVDRip]

  • 状态: 精华资源
  • 摘要:
    发行时间2011年
    语言英语
  • 时间: 2011/05/22 16:48:11 发布 | 2011/05/23 01:44:23 更新
  • 分类: 动漫  剧场动画 

life_is_good

精华资源: 6571

全部资源: 7301

相关: 分享到新浪微博   转播到腾讯微博   分享到开心网   分享到人人   分享到QQ空间   订阅本资源RSS更新   美味书签  subtitle
该内容尚未提供权利证明,无法提供下载。
中文名跆拳道熊猫
英文名Chop Kick Panda
资源格式DVDRip
版本[720x400][AVI]
发行时间2011年
导演LIVING ARTS
配音演员不详
地区美国
语言英语
简介

IPB Image


【首播时间】 2011年
【字幕制作】 暂无


【内容介绍】

鲁是一只肥硕而可爱的熊猫,是一家跆拳道馆的第六代传人。鲁并不知道馆舍的地下埋藏着古老的愤怒护身符,这块神秘的护身符可以给拥有者以无穷的能量和保护。邪恶的老虎武士库多前来抢夺这块护身符,并威胁当地居民。鲁和他的徒弟们开始了一场保护护身符的战斗。(文/life_is_good@YDY)

【STAFF】

导演:不详
制作公司:LIVING ARTS

【CAST】

不详

IPB Image

IPB Image

IPB Image

IPB Image

IPB Image

IPB Image

代码
General
Complete name                    : Chop.Kick.Panda.2011.DVDRip.Xvid.AC3-Freebee.avi
Format                           : AVI
Format/Info                      : Audio Video Interleave
File size                        : 557 MiB
Duration                         : 41mn 2s
Overall bit rate                 : 1 898 Kbps
Writing application              : VirtualDubMod 1.5.10.3 | www.virtualdub-fr.org || (build 2550/release)
Writing library                  : VirtualDubMod build 2550/release

Video
ID                               : 0
Format                           : MPEG-4 Visual
Format profile                   : Advanced Simple@L5
Format settings, BVOP            : 2
Format settings, QPel            : No
Format settings, GMC             : No warppoints
Format settings, Matrix          : Default (H.263)
Codec ID                         : XVID
Codec ID/Hint                    : XviD
Duration                         : 41mn 2s
Bit rate                         : 1 366 Kbps
Width                            : 720 pixels
Height                           : 400 pixels
Display aspect ratio             : 16:9
Frame rate                       : 23.976 fps
Color space                      : YUV
Chroma subsampling               : 4:2:0
Bit depth                        : 8 bits
Scan type                        : Progressive
Compression mode                 : Lossy
Bits/(Pixel*Frame)               : 0.198
Stream size                      : 401 MiB (72%)
Writing library                  : XviD 63

Audio
ID                               : 1
Format                           : AC-3
Format/Info                      : Audio Coding 3
Mode extension                   : CM (complete main)
Codec ID                         : 2000
Duration                         : 41mn 2s
Bit rate mode                    : Constant
Bit rate                         : 448 Kbps
Channel(s)                       : 6 channels
Channel positions                : Front: L C R, Side: L R, LFE
Sampling rate                    : 48.0 KHz
Bit depth                        : 16 bits
Compression mode                 : Lossy
Stream size                      : 132 MiB (24%)
Alignment                        : Split accross interleaves

正在读取……

这里是其它用户补充的资源(我也要补充):

暂无补充资源
正在加载,请稍等...

点击查看所有36网友评论

 

(?) [公告]留口水、评论相关规则 | [活动]每日签到 轻松领取电驴经验

    小贴士:
  1. 类似“顶”、“沙发”之类没有营养的文字,对勤劳贡献的楼主来说是令人沮丧的反馈信息。
  2. 提问之前请再仔细看一遍楼主的说明,或许是您遗漏了。
  3. 勿催片。请相信驴友们对分享是富有激情的,如果确有更新版本,您一定能搜索到。
  4. 请勿到处挖坑绊人、招贴广告。既占空间让人厌烦,又没人会搭理,于人于己都无利。
  5. 如果您发现自己的评论不见了,请参考以上4条。