v

您的位置:VeryCD综艺纪录片

综艺资源事务区


《布兰柯媒体:石油秘辛》(Braint Media: Gas Hole)全一集/BBnRG小组/英语无字幕[DVDRip]

  • 状态: 精华资源
  • 摘要:
    发行时间2010年
    地区美国
    语言英语
  • 时间: 2011/05/04 16:46:54 发布 | 2011/05/05 10:56:13 更新
  • 分类: 综艺  纪录片 

life_is_good

精华资源: 6571

全部资源: 7301

相关: 分享到新浪微博   转播到腾讯微博   分享到开心网   分享到人人   分享到QQ空间   订阅本资源RSS更新   美味书签  subtitle
该内容尚未提供权利证明,无法提供下载。
中文名布兰柯媒体:石油秘辛
英文名Braint Media: Gas Hole
资源格式DVDRip
版本全一集/BBnRG小组/英语无字幕
发行时间2010年
制作发行Braint Media
地区美国
语言英语
简介

IPB Image

【类型】: 纪录
【影片长度】: 97分钟
【集数】:全1集
【字幕】: 暂无
【服务器】: 随机
【分享时间】:全天

【内容介绍】:

“令人愤怒...本片揭露了油价涨跌背后的真相” -Variety
“所有美国公民必看的一部电影” -St. Louis Post-Dispatch
“本片揭露了石油工业历年来隐藏在帘幕背后的利益勾结,解释了它们是如何从银行帐户、整体国家经济中大发横财”– 美国消费者观察基金会及油价观察基金会

是什么缘故,让美国从全球最大石油输出国变成了最大石油进口国?是单纯的经济因素?

还是政治角力下的利益输送?本片访谈了石油等能源产业链的上中下游关係者:制造单位、政府官员、企业高层以及每天都需要帮汽车加油的消费者们,藉由历史上油价的涨跌纪录来一探油价背后隐藏的真相。

引用
不用问我为什么中文名是“石油秘辛”。看看海报和商城截图吧。如果脑子还转不过来,我也没办法了。
IPB Image

代码
General
Complete name                    : D:\eMule\Gas_Hole_2010_DVDRip_Xvid_AC3_-_BBnRG.avi
Format                           : AVI
Format/Info                      : Audio Video Interleave
File size                        : 797 MiB
Duration                         : 1h 37mn
Overall bit rate                 : 1 147 Kbps

Video
ID                               : 0
Format                           : MPEG-4 Visual
Format profile                   : Advanced Simple@L5
Format settings, BVOP            : 2
Format settings, QPel            : No
Format settings, GMC             : No warppoints
Format settings, Matrix          : Default (H.263)
Codec ID                         : XVID
Codec ID/Hint                    : XviD
Duration                         : 1h 37mn
Bit rate                         : 1 009 Kbps
Width                            : 1 024 pixels
Height                           : 572 pixels
Display aspect ratio             : 16:9
Frame rate                       : 25.000 fps
Color space                      : YUV
Chroma subsampling               : 4:2:0
Bit depth                        : 8 bits
Scan type                        : Progressive
Compression mode                 : Lossy
Bits/(Pixel*Frame)               : 0.069
Stream size                      : 701 MiB (88%)
Writing library                  : XviD 1.2.1 (UTC 2008-12-04)

Audio
ID                               : 1
Format                           : AC-3
Format/Info                      : Audio Coding 3
Mode extension                   : CM (complete main)
Codec ID                         : 2000
Duration                         : 1h 37mn
Bit rate mode                    : Constant
Bit rate                         : 128 Kbps
Channel(s)                       : 2 channels
Channel positions                : Front: L R
Sampling rate                    : 48.0 KHz
Bit depth                        : 16 bits
Compression mode                 : Lossy
Stream size                      : 89.0 MiB (11%)
Alignment                        : Aligned on interleaves
Interleave, duration             : 32 ms (0.80 video frame)

正在读取……

这里是其它用户补充的资源(我也要补充):

暂无补充资源
正在加载,请稍等...

点击查看所有20网友评论

 

(?) [公告]留口水、评论相关规则 | [活动]每日签到 轻松领取电驴经验

    小贴士:
  1. 类似“顶”、“沙发”之类没有营养的文字,对勤劳贡献的楼主来说是令人沮丧的反馈信息。
  2. 提问之前请再仔细看一遍楼主的说明,或许是您遗漏了。
  3. 勿催片。请相信驴友们对分享是富有激情的,如果确有更新版本,您一定能搜索到。
  4. 请勿到处挖坑绊人、招贴广告。既占空间让人厌烦,又没人会搭理,于人于己都无利。
  5. 如果您发现自己的评论不见了,请参考以上4条。